<?xml version="1.0" standalone="no"?>
<!DOCTYPE svg PUBLIC "-//W3C//DTD SVG 1.1//EN" "http://www.w3.org/Graphics/SVG/1.1/DTD/svg11.dtd" >
<svg xmlns="http://www.w3.org/2000/svg" xmlns:xlink="http://www.w3.org/1999/xlink" version="1.1">
<metadata>
Created by FontForge 20170812 at Wed Oct 12 06:10:26 2022
 By www-data
</metadata>
<defs>
<font id="MiniHomeRegular" horiz-adv-x="0" >
  <font-face 
    font-family="Mini Home"
    font-weight="400"
    font-stretch="normal"
    units-per-em="1000"
    panose-1="0 0 0 0 0 0 0 0 0 0"
    ascent="800"
    descent="-200"
    x-height="462.2"
    cap-height="832.679"
    bbox="-139.997 -479.316 1217.78 1082.33"
    underline-thickness="50"
    underline-position="-100"
    unicode-range="U+000A-20AC"
  />
<missing-glyph horiz-adv-x="527" 
d="M50 700h427v-700h-427v700zM78 680l185 -309l186 309h-371zM251 350l-180 300v-601zM264 329l-185 -308h370zM276 350l181 -303v605z" />
    <glyph glyph-name=".notdef" horiz-adv-x="527" 
d="M50 700h427v-700h-427v700zM78 680l185 -309l186 309h-371zM251 350l-180 300v-601zM264 329l-185 -308h370zM276 350l181 -303v605z" />
    <glyph glyph-name=".null" 
 />
    <glyph glyph-name=".null" 
 />
    <glyph glyph-name="LF" unicode="&#xa;" 
 />
    <glyph glyph-name="controlCR" unicode="&#xd;" 
 />
    <glyph glyph-name="space" unicode=" " horiz-adv-x="244" 
 />
    <glyph glyph-name="exclam" unicode="!" horiz-adv-x="268" 
d="M145.143 102.147c-14.4736 -3.14453 -33.1436 -3.75391 -47.5996 0.395508c-7.63965 2.19434 -22.5732 8.49805 -23.3281 18.752c-5.21777 70.8623 -8.79688 141.856 -12.9277 212.794c-4.13086 70.9121 -10.0283 142.081 -11.2822 213.111
c-0.484375 27.4268 36.0283 38.8311 57.5039 43.4971c16.3223 3.54395 66.9561 7.09863 69.6094 -18.79c7.22949 -70.542 9.80078 -141.786 14.1318 -212.56c4.33789 -70.9414 9.22754 -141.879 12.4824 -212.881c1.27539 -27.8154 -37.3633 -39.7109 -58.5898 -44.3193z
M217.909 -15.5986c2.98438 -27.3662 -38.7012 -39.9062 -58.4209 -44.1904c-14.4307 -3.1377 -33.043 -3.74707 -47.4561 0.391602c-8.00293 2.30078 -22.1201 8.38379 -23.2598 18.6982c-2.93457 26.5684 -5.87598 53.3613 -6.48145 80.1006
c-0.626953 27.7012 36.5332 39.2725 58.123 43.9629c14.3604 3.12012 32.8799 3.72949 47.2188 -0.387695c7.84277 -2.25098 22.1318 -8.36914 23.1436 -18.6016c2.63184 -26.6367 4.23047 -53.3516 7.13281 -79.9736z" />
    <glyph glyph-name="quotedbl" unicode="&#x22;" horiz-adv-x="408" 
d="M71.0342 489.404c13.3701 39.0869 138.196 54.2979 125.902 7.27246c-7.21582 -27.5947 -14.2031 -55.0039 -19.0322 -83.1396c-1.96191 -11.4395 -16.7383 -19.5273 -25.9307 -24.6133c-14.752 -8.15918 -32.3418 -11.5352 -49.0098 -12.8281
c-19.2529 -1.49219 -57.457 2.86719 -52.5283 30.0771c5.08887 28.1035 11.3428 56.1787 20.5986 83.2314zM305.383 530.6c15.6211 1.21484 60.0508 -3.28613 51.1719 -29.3027c-13.5479 -39.6748 -23.6377 -79.1113 -27.1133 -121.02
c-0.893555 -10.7773 -17.1699 -19.9834 -25.7314 -24.4248c-14.9971 -7.77832 -31.8965 -11.4287 -48.6357 -12.7285c-21.2266 -1.64941 -54.2803 2.85938 -52.126 29.8447c3.3125 41.5156 12.248 83.082 29.4355 121.158c11.749 26.0273 47.3994 34.4854 72.999 36.4727z
" />
    <glyph glyph-name="quotedbl" unicode="&#x201d;" horiz-adv-x="408" 
d="M71.0342 489.404c13.3701 39.0869 138.196 54.2979 125.902 7.27246c-7.21582 -27.5947 -14.2031 -55.0039 -19.0322 -83.1396c-1.96191 -11.4395 -16.7383 -19.5273 -25.9307 -24.6133c-14.752 -8.15918 -32.3418 -11.5352 -49.0098 -12.8281
c-19.2529 -1.49219 -57.457 2.86719 -52.5283 30.0771c5.08887 28.1035 11.3428 56.1787 20.5986 83.2314zM305.383 530.6c15.6211 1.21484 60.0508 -3.28613 51.1719 -29.3027c-13.5479 -39.6748 -23.6377 -79.1113 -27.1133 -121.02
c-0.893555 -10.7773 -17.1699 -19.9834 -25.7314 -24.4248c-14.9971 -7.77832 -31.8965 -11.4287 -48.6357 -12.7285c-21.2266 -1.64941 -54.2803 2.85938 -52.126 29.8447c3.3125 41.5156 12.248 83.082 29.4355 121.158c11.749 26.0273 47.3994 34.4854 72.999 36.4727z
" />
    <glyph glyph-name="quotedbl" unicode="&#x201c;" horiz-adv-x="408" 
d="M71.0342 489.404c13.3701 39.0869 138.196 54.2979 125.902 7.27246c-7.21582 -27.5947 -14.2031 -55.0039 -19.0322 -83.1396c-1.96191 -11.4395 -16.7383 -19.5273 -25.9307 -24.6133c-14.752 -8.15918 -32.3418 -11.5352 -49.0098 -12.8281
c-19.2529 -1.49219 -57.457 2.86719 -52.5283 30.0771c5.08887 28.1035 11.3428 56.1787 20.5986 83.2314zM305.383 530.6c15.6211 1.21484 60.0508 -3.28613 51.1719 -29.3027c-13.5479 -39.6748 -23.6377 -79.1113 -27.1133 -121.02
c-0.893555 -10.7773 -17.1699 -19.9834 -25.7314 -24.4248c-14.9971 -7.77832 -31.8965 -11.4287 -48.6357 -12.7285c-21.2266 -1.64941 -54.2803 2.85938 -52.126 29.8447c3.3125 41.5156 12.248 83.082 29.4355 121.158c11.749 26.0273 47.3994 34.4854 72.999 36.4727z
" />
    <glyph glyph-name="numbersign" unicode="#" horiz-adv-x="693" 
d="M606.601 275.37c19.0215 -2.26172 48.5957 -14.2266 30.6143 -37.5938c-17.2695 -22.4619 -56.791 -30.835 -83.5088 -27.6543c-2.16504 0.259766 -4.27734 0.462891 -6.43164 0.711914c-2.12988 -10.8877 -4.22754 -21.7822 -6.2793 -32.6836
c14.8623 -0.270508 29.7246 -0.53418 44.5869 -0.808594c20.0479 -0.370117 47.7207 -15.4668 30.6572 -37.6514c-18.4375 -23.9795 -55.8398 -28.1895 -83.6191 -27.6904c-1.23535 0.0214844 -2.47461 0.046875 -3.70996 0.0683594
c-10.8164 -60.7373 -21.0986 -121.557 -32.3672 -182.227c-4.9043 -26.4189 -53.7959 -35.3584 -73.8896 -36.918c-20.375 -1.58105 -54.8496 2.80664 -51.79 29.6562c7.31543 64.1738 17.665 128.142 29.2324 191.831l-65.7188 1.19531
c-1.73828 -8.81152 -3.47949 -17.623 -5.14648 -26.4521c-4.41992 -23.4277 -8.67578 -46.8867 -12.668 -70.3926c-4.13086 -24.3174 -9.78613 -48.9238 -8.24414 -73.6865c1.7168 -27.5547 -37.5059 -39.5391 -58.2197 -44.041
c-16.4785 -3.5791 -67.8604 -7.18652 -70.4785 19.0225c-2.70703 27.1172 2.62402 54.4766 6.78711 81.2051c3.66113 23.5098 7.54297 46.9873 11.8057 70.3936c2.81348 15.4492 5.77637 30.8672 8.81055 46.2705c-40.3516 0.741211 -80.707 1.46387 -121.059 2.20508
c-20.04 0.367188 -47.6953 15.4609 -30.6426 37.6387c18.4307 23.9648 55.8154 28.1777 83.584 27.6758c27.2666 -0.495117 54.5371 -0.994141 81.8037 -1.48535c1.91211 8.75391 3.88477 17.4941 5.87207 26.2344c-37.7695 -3.1377 -75.5674 -5.29199 -113.558 -2.94531
c-19.5957 1.21484 -48.0449 14.9053 -30.6045 37.5879c17.9102 23.292 56.1465 29.3291 83.4736 27.6406c21.9277 -1.35352 49.333 0.398438 76.1904 2.78809c19.3818 77.8643 41.6162 155.045 66.9385 231.161c14.0781 42.3174 144.642 52.7666 129.9 7.50391
c-24.6201 -75.6025 -46.8975 -151.875 -66.418 -228.917c1.53516 0.0537109 3.06641 0.146484 4.60156 0.192383c18.7578 0.573242 37.5264 0.808594 56.2949 0.719727c15.8447 76.7715 33.125 153.265 52.2285 229.273c10.7773 42.873 142.495 55.9795 130.768 7.55371
c-19.542 -80.667 -38.0898 -161.541 -55.0889 -242.768c15.1152 -1.32812 30.2197 -2.82422 45.292 -4.61523zM412.472 180.473c2.52539 13.1309 5.07129 26.2529 7.63574 39.3594c-21.0479 0.466797 -42.1357 0.334961 -63.4658 -0.274414
c-2.91699 -12.6221 -5.75879 -25.2617 -8.52637 -37.916c21.4512 -0.388672 42.9053 -0.780273 64.3564 -1.16895z" />
    <glyph glyph-name="dollar" unicode="$" horiz-adv-x="567" 
d="M424.346 266.591c79.1504 -51.5205 122.578 -160.873 68.1514 -245.839c-30.874 -48.1934 -88.1855 -74.2314 -141.7 -87.6582c-15.6279 -3.9209 -31.7402 -6.66992 -48.0234 -8.16602c1.40723 -27.8721 3.17773 -55.748 5.40039 -83.6309
c1.86621 -23.4092 -62.7812 -33.6553 -64.541 -12.543c-2.69629 32.3701 -4.80469 64.7764 -6.39648 97.2002c-13.0889 1.66992 -26.0205 4.2373 -38.6211 7.79199c-44.0947 12.4326 -86.0947 38.0254 -110.976 77.3408c-25.3857 40.1133 -34.8594 86.4092 -37.5908 133.189
c-1.6416 28.0889 38.1113 40.2588 59.3057 44.8633c14.6523 3.18066 33.5459 3.80078 48.1797 -0.398438c7.625 -2.19043 22.957 -8.62988 23.6123 -18.9834c3.12695 -49.3477 12.2617 -101.388 47.1504 -138.801c1.85938 -1.99121 3.71875 -3.86133 5.60645 -5.6416
c-1.39258 74.5732 -0.413086 149.229 2.09766 223.855c-29.8135 8.81836 -60.7695 16.1406 -90.1094 27.249c-22.3125 8.44824 -47.4961 18.0039 -59.9648 39.8467c-12.0059 21.0303 -9.59473 45.8857 0.53418 67.2686c19.8877 41.9932 60.1006 72.6895 101.83 91.0029
c19.3213 8.47656 39.625 15.1689 60.4062 19.7705c2.59277 39.5283 5.36035 79.0176 8.18457 118.45c1.68066 23.4629 64.0957 31.1133 62.9844 12.2441c-2.42578 -41.1631 -4.89746 -82.3232 -7.25488 -123.479c13.9326 0.0429688 27.8545 -0.936523 41.6162 -3.04883
c49.7891 -7.63965 106.548 -31.2451 115.729 -87.1494c4.27734 -26.0596 -38.5811 -38.8164 -56.4414 -42.6953c-17.3193 -3.76074 -63.9424 -6.89453 -68.3232 18.4414c-3.63281 21.0127 -17.3799 35.8604 -36.5195 43.2188
c-2.05469 -38.8662 -3.9248 -77.7324 -5.48828 -116.603c41.7656 -11.3535 84.6992 -23.3633 121.161 -47.0967zM239.394 332.214c1.4707 31.0137 3.15039 62.0127 4.98145 92.9941c-0.419922 -0.207031 -0.69043 -0.321289 -0.74707 -0.314453
c-3.37988 -2.26172 -6.68164 -4.67676 -9.84766 -7.19824c-11.8594 -9.44141 -27.8936 -27.4229 -30.209 -47.5771c-2.38574 -20.749 12.3623 -28.9512 27.9014 -34.9805c2.625 -1.01465 5.26758 -1.9834 7.9209 -2.92383zM375.662 37.9795
c17.0527 39.71 11.6895 89.3252 -10.541 126.18c-17.042 28.2422 -39.501 46.7549 -64.9189 60.2568c-1.99805 -76.7285 -2.38965 -153.475 -0.170898 -230.242c4.41992 -0.149414 23.6768 -0.0283203 9.24609 -0.904297c3.44727 0.207031 7.0127 0.427734 10.4746 0.523438
c0.0859375 0.0107422 0.135742 0.0146484 0.217773 0.0214844c2.62793 0.452148 5.25586 0.908203 7.86621 1.46777c0.683594 0.117188 1.26367 0.209961 1.79395 0.285156c0.519531 0.263672 1.09277 0.548828 1.78027 0.876953
c11.0938 5.28906 2.3252 0.481445 0.333984 -0.632812c0.0214844 0 0.046875 0.00390625 0.0644531 0.00390625c0.666016 0.345703 2.14062 1.12207 4.89746 2.57129c0.363281 0.188477 11.0479 6.23633 9.49121 4.97949c12.4189 8.35156 22.4697 18.3271 29.4648 34.6133z
" />
    <glyph glyph-name="percent" unicode="%" horiz-adv-x="787" 
d="M574.688 555.722c22.5225 -1.55273 49.1377 -15.5664 32.6943 -40.1445c-71.6143 -106.986 -139.756 -216.412 -203.164 -328.471c-64.21 -113.476 -122.411 -229.693 -179.915 -346.648c-13.2949 -27.042 -48.6924 -35.9668 -76.2764 -38.1074
c-14.3633 -1.11816 -65.3242 4.10254 -53.4648 30.6104c108.112 241.667 243.516 473.65 390.968 693.236c16.8604 25.1084 62.3545 31.373 89.1582 29.5244zM194.138 210.837c-41.7764 -5.30273 -84.3164 5.0459 -102.338 45.7822
c-11.9561 27.0098 -14.542 59.6543 -15.8701 88.8154c-0.822266 18.0713 -0.387695 36.2168 1.09375 54.2773c-11.8027 2.56445 -21.7646 8.27344 -24.9199 19.3389c-10.5674 37.0645 20.7383 70.8027 48.04 91.1143c36.4912 27.1455 82.2168 43.2539 127.758 43.9131
c37.4707 0.544922 78.7549 -8.37988 104.255 -38.1113c18.3662 -21.415 25.5781 -51.0039 26.9062 -78.5488c2.90234 -60.1074 -16.5723 -120.144 -54.7656 -166.773c-28.1602 -34.3789 -66.1572 -54.2236 -110.159 -59.8076zM223.575 277.008
c2.95605 -3.78906 3.97168 -4.87598 3.0459 -3.25879c-1.13281 2.0625 -2.48633 3.73242 -4.02832 5.07129c0.334961 -0.59082 0.672852 -1.16113 0.982422 -1.8125zM200.159 485.56c-0.374023 -0.519531 -5.05078 -4.16211 -7.61523 -6.12402
c11.9629 -4.21289 20.9736 -12.1904 18.4307 -26.3047c-7.88867 -43.7744 -10.3174 -93.5957 -0.694336 -138.588c5.33496 10.5527 9.6875 21.6143 13.1924 33.1641c11.4785 37.8262 19.6953 105.127 -15.9053 133.758c-2.09375 1.68066 -4.60449 3.03711 -7.10156 4.26562
c-0.103516 -0.0566406 -0.203125 -0.110352 -0.306641 -0.170898zM178.358 269.668c-12.8174 -5.31348 -2.56738 -2.88867 0 0zM646.998 211.038c144.45 -37.6055 94.999 -241.004 -6.87695 -298.344c-60.5771 -34.0938 -168.953 -40.7432 -196.22 38.5312
c-9.80078 28.5029 -7.78809 61.8486 -5.70508 91.3945c1.32129 18.7119 3.74316 37.1602 7.29785 55.4023c-18.9189 3.32617 -39.832 16.3896 -24.6924 36.8115c49.3232 66.5244 146.836 96.8643 226.196 76.2041zM587.813 -43.5244c2.77441 -1.88086 2.94531 -0.587891 0 0
zM592.045 -4.8291c18.5586 40.3838 31.917 106.175 -3.29492 142.092c-1.91602 1.95508 -3.73926 3.57227 -5.69824 5.04004c-14.9082 -50.6729 -25.8594 -112.564 -10.2744 -163.469c1.0293 -3.36914 2.41504 -6.4248 3.98926 -9.31348
c5.99023 8.00293 11.0723 16.501 15.2783 25.6504z" />
    <glyph glyph-name="ampersand" unicode="&#x26;" horiz-adv-x="548" 
d="M475.701 214.576c6.19727 -1.78027 22.8721 -8.49512 22.4521 -18.0537c-1.68066 -38.2715 -19.6592 -69.5947 -40.4082 -100.975c-17.0527 -25.7891 -36.833 -49.7686 -58.8496 -71.4688c-14.8154 -14.5986 -30.6465 -28.6133 -47.3467 -41.5908
c5.20312 -7.78516 10.4844 -15.5137 15.8408 -23.1641c28.1963 -40.2842 -96.1416 -75.4355 -120.791 -40.8711c-0.96875 1.36035 -1.93066 2.73535 -2.89551 4.10254c-13.4199 -4.53711 -27.1709 -8.12012 -41.2314 -10.5703
c-56.6523 -9.87207 -165.879 -5.25684 -151.113 79.0898c5.2959 30.251 30.2051 56.4209 50.3486 78.1562c12.3223 13.2988 25.2715 26.0059 38.4346 38.4922c-23.4521 58.8389 -38.3779 120.58 -39.4961 184.074c-1.05078 59.6797 9.19531 121.293 46.3027 169.825
c47.0576 61.5498 142.284 91.7012 215.088 63.0879c54.6689 -21.4863 84.0371 -78.9258 83.0469 -135.885c-1.08301 -62.3682 -27.6191 -119.024 -65.7197 -167.464c-30.3369 -38.5635 -67.0732 -71.0156 -103.229 -103.952
c9.02148 -20.5742 19.0791 -40.7354 29.9414 -60.4941c11.7031 13.0918 22.6621 27.1064 32.5732 41.3848c14.6309 21.0771 33.1221 47.5215 34.8496 73.9971c1.77344 27.1562 33.4775 37.6768 56.3916 42.6553c13.9326 3.03125 31.9004 3.61914 45.8115 -0.376953z
M282.641 469.705c0.580078 0.509766 0.675781 0.679688 -0.189453 -0.0322266c0.0644531 0.0107422 0.125 0.0214844 0.189453 0.0322266zM205.631 -21.1953c0.170898 0.0820312 0.338867 0.169922 0.499023 0.251953c-8.03809 12.9355 -15.8057 26.0947 -23.2422 39.4541
c-5.75488 -9.90137 -9.71191 -21.9922 -5.62012 -33.2285c1.06445 -2.91992 3.00195 -6.55957 4.55469 -8.13379c-0.302734 0.30957 6.16797 -4.44824 3.1875 -2.1543c-1.44629 1.11133 -0.605469 0.776367 0.620117 0.12793
c0.135742 0.302734 2.55762 -0.328125 3.68652 -0.851562c2.81348 1.06445 13.1348 3.35449 7.31152 1.2002c2.51758 0.851562 5.03516 1.69531 7.52148 2.63574c0.40625 0.192383 0.875977 0.413086 1.48145 0.698242zM244.427 208.707
c16.376 18.4658 31.2432 38.1055 43.0957 59.627c25.8096 46.9082 39.9062 110.822 14.1387 160.929c-5.18555 10.0859 -12.8857 19.9766 -21.2588 27.5977c-1.96191 1.78418 -4.12012 3.55469 -6.26758 5.125c-5.2002 -5.25293 -10.9346 -11.9629 -15.8496 -19.542
c-30.1768 -46.5381 -31.915 -108.729 -26.5908 -162.065c2.43652 -24.3994 6.7959 -48.2793 12.7324 -71.6709z" />
    <glyph glyph-name="quotesingle" unicode="'" horiz-adv-x="247" 
d="M71.9141 492.901c10.3066 39.3721 132.686 55.9707 124.604 7.19629c-5.73438 -34.5889 -13.082 -68.9424 -19.2148 -103.471c-1.9834 -11.165 -16.5889 -19.7129 -25.8096 -24.4961c-15.04 -7.80273 -31.9922 -11.4639 -48.7812 -12.7676
c-19.168 -1.48828 -57.1797 2.85352 -52.2822 29.9346c6.26465 34.6387 12.5615 69.5342 21.4834 103.604z" />
    <glyph glyph-name="quotesingle" unicode="&#x2019;" horiz-adv-x="247" 
d="M71.9141 492.901c10.3066 39.3721 132.686 55.9707 124.604 7.19629c-5.73438 -34.5889 -13.082 -68.9424 -19.2148 -103.471c-1.9834 -11.165 -16.5889 -19.7129 -25.8096 -24.4961c-15.04 -7.80273 -31.9922 -11.4639 -48.7812 -12.7676
c-19.168 -1.48828 -57.1797 2.85352 -52.2822 29.9346c6.26465 34.6387 12.5615 69.5342 21.4834 103.604z" />
    <glyph glyph-name="quotesingle" unicode="&#x2018;" horiz-adv-x="247" 
d="M71.9141 492.901c10.3066 39.3721 132.686 55.9707 124.604 7.19629c-5.73438 -34.5889 -13.082 -68.9424 -19.2148 -103.471c-1.9834 -11.165 -16.5889 -19.7129 -25.8096 -24.4961c-15.04 -7.80273 -31.9922 -11.4639 -48.7812 -12.7676
c-19.168 -1.48828 -57.1797 2.85352 -52.2822 29.9346c6.26465 34.6387 12.5615 69.5342 21.4834 103.604z" />
    <glyph glyph-name="parenleft" unicode="(" horiz-adv-x="448" 
d="M393.43 -147.148c17.6504 -22.2588 -21.4961 -42.6152 -37.7471 -47.9541c-89.5742 -29.4033 -193.894 -5.67285 -246.229 76.9785c-41.2705 65.1748 -52.0186 145.995 -57.2324 221.459c-5.75879 83.3848 -0.270508 167.991 15.8135 250.001
c14.9121 76.041 37.958 152.716 78.1602 219.43c19.2002 31.8643 44.6357 62.0117 75.1074 83.6582c41.5762 29.5352 120.517 50.2559 159.945 6.50293c18.7334 -20.7881 -22.4766 -40.999 -36.2627 -46.0703c-12.583 -4.63379 -29.8525 -8.10938 -46.0322 -7.1582
c-10.4707 -11.625 -19.8193 -24.2363 -28.167 -37.4561c-16.165 -25.6035 -27.7646 -54.2559 -37.8008 -82.7334c-43.9131 -124.616 -59.249 -258.819 -45.7969 -390.163c6.01855 -58.7676 14.3594 -124.487 46.6943 -175.37
c13.7578 -21.6572 30.8887 -40.291 53.4971 -52.6777c3.05176 -1.66992 6.17871 -3.17969 9.30566 -4.7041c8.89648 -4.33398 4.85742 -2.0332 2.77734 -1.28125c3.21973 -1.16113 6.5459 -1.9873 9.81934 -2.9707
c0.149414 -0.0458984 0.893555 -0.223633 1.75586 -0.430664c1.10449 -0.114258 2.87793 -0.352539 4.32422 -0.55957c-0.388672 -0.106445 -0.851562 -0.238281 -1.40039 -0.398438c0.121094 0.0146484 0.207031 0.0253906 0.321289 0.0361328
c0.413086 0.114258 0.858398 0.224609 1.28223 0.338867c0.0429688 -0.00683594 0.0859375 -0.0107422 0.128906 -0.0175781c0.398438 0.117188 0.733398 0.223633 0.975586 0.305664c23.3594 6.05078 61.0293 11.0762 76.7607 -8.76465zM309.249 -140.456
c0.915039 0.28125 1.93066 0.566406 2.92773 0.851562c-0.0644531 -0.0107422 -0.135742 -0.0214844 -0.196289 -0.0283203c-0.804688 -0.238281 -1.6875 -0.505859 -2.73145 -0.823242zM312.487 -139.516c0.548828 0.15625 1.0791 0.310547 1.64551 0.463867
c-0.0859375 0 -0.146484 0 -0.203125 -0.00390625c-0.523438 -0.15332 -1.12891 -0.328125 -1.8125 -0.535156c0.117188 0.0214844 0.245117 0.0498047 0.370117 0.0751953z" />
    <glyph glyph-name="parenright" unicode=")" horiz-adv-x="446" 
d="M314.642 565.463c74.0791 -144.557 92.877 -318.686 75.999 -478.492c-7.86035 -74.4707 -22.3018 -156.759 -74.3389 -214.354c-57.8027 -63.9785 -160.131 -99.5859 -243.861 -71.8096c-25.1836 8.35156 -30.6758 27.9043 -8.74805 44.9883
c23.5518 18.3486 63.0771 26.5078 91.8145 17.8467c2.05859 -0.623047 10.5957 -2.35742 9.23926 -2.40723c0.103516 -0.0107422 0.207031 -0.0214844 0.313477 -0.0322266c0.577148 0.166992 1.23633 0.355469 1.9668 0.5625
c3.0166 1.54883 6.06543 3.02344 9.03223 4.68262c0.317383 0.256836 0.702148 0.55957 1.24023 0.96582c13.1387 9.92188 16.6572 12.792 26.9785 26.29c8.72559 11.4072 15.6494 23.4561 21.4443 36.5732c24.959 56.499 33.1357 121.838 36.7256 182.992
c3.88867 66.1973 0.694336 132.843 -9.5166 198.363c-9.99707 64.1279 -25.9199 128.427 -50.4375 188.623c-10.5137 25.8174 -23.4102 50.5586 -39.8428 73.1387c-8.40137 11.5498 -17.6934 22.4512 -27.9258 32.4199c-2.15137 2.09766 -4.33105 4.27734 -6.59277 6.35352
c-10.25 -1.7666 -20.6992 -2.25488 -30.7178 -1.56348c-17.7363 1.22168 -49.9609 16.0303 -30.5078 37.4707c44.5146 49.0596 126.094 50.7725 175.744 10.0967c30.7422 -25.1865 53.9561 -57.5137 71.9912 -92.708zM113.39 622.311
c-0.391602 -0.527344 0.452148 -0.836914 2.06152 -1.00098c-1.13574 0.680664 -1.97266 1.12207 -2.06152 1.00098zM164.069 -139.09c0 0.00390625 0.00390625 0.00390625 0.0078125 0.00390625c-3.03125 -0.256836 -1.98047 -0.228516 -0.0078125 -0.00390625z
M166.545 -138.951c0.291992 0.0751953 1.52344 0.180664 4.04883 0.358398c-1.79492 -0.12793 -3.23047 -0.234375 -4.3916 -0.323242c0.114258 -0.00683594 0.228516 -0.0244141 0.342773 -0.0351562z" />
    <glyph glyph-name="asterisk" unicode="*" horiz-adv-x="354" 
d="M293.326 403.583c12.6719 -3.60449 14.3359 -14.0205 4.2998 -22.126c-24.8125 -20.0332 -49.6572 -40.0664 -74.7549 -59.7432c-0.505859 -0.398438 -1.10449 -0.726562 -1.63867 -1.10059c27.1211 -21.4434 42.1758 -50.708 64.4385 -77.3838
c14.9648 -17.9287 -46.2422 -36.9365 -60.0107 -20.3047c-15.9482 19.2607 -27.6084 42.1934 -44.248 60.6387c-11.5537 -20.2295 -23.5059 -40.2773 -34.9521 -60.4639c-7.31836 -12.9033 -23.2422 -17.9248 -37.4385 -18.7051
c-6.20801 -0.341797 -33.1543 2.31543 -26.2412 15.0264c15.0078 27.5947 30.2012 55.6162 46.8506 82.4521c-24.0078 19.3389 -48.6572 37.7588 -74.0576 55.2354c-23.7158 16.3184 34.9346 37.2812 51.2246 26.0801c12.4229 -8.54004 24.6602 -17.3408 36.7617 -26.3232
c-0.730469 23.7656 -2.46094 47.4707 -5.23535 71.1406c-2.61816 22.334 60.0215 32.9111 62.4932 12.1475c3.11621 -26.1875 4.97168 -52.4248 5.58398 -78.7373c13.8965 11.1689 27.8291 22.2949 41.7725 33.3926c11.418 9.08496 31.248 12.7314 45.1523 8.77441z" />
    <glyph glyph-name="plus" unicode="+" horiz-adv-x="310" 
d="M259.992 208.66c2.5 -12.8564 -19.7871 -20.5479 -28.9824 -21.9229c-15.71 -2.35449 -31.4521 -4.37012 -47.2188 -6.1084c3.12695 -39.7002 8.25195 -79.2285 15.5498 -118.312c4.02051 -21.5469 -58.458 -33.4385 -62.5752 -12.166
c-8.05273 41.5977 -13.9365 83.3164 -17.5127 125.199c-14.2529 -0.748047 -28.5273 -1.24316 -42.8232 -1.41016c-8.37305 -0.0996094 -29.4961 1.02246 -26.0518 14.916c3.20898 12.9385 26.0625 18.4014 37.167 18.5684
c9.79785 0.149414 19.5879 0.441406 29.3711 0.836914c-2.23633 40.0098 -2.3252 80.1758 -0.0810547 120.545c1.34961 24.3174 65.9297 32.085 64.9219 12.6182c-2.20801 -42.7559 -2.26855 -85.7354 -0.0566406 -128.604c14.4277 1.46387 28.834 3.20215 43.2041 5.31055
c8.60449 1.26465 32.4951 3.86816 35.0879 -9.46973z" />
    <glyph glyph-name="comma" unicode="," horiz-adv-x="302" 
d="M239.767 87.5664c6.66016 -3.93555 16.0693 -14.0156 11.2295 -23.0762c-24.6992 -46.1992 -50.9473 -92.8975 -82.7012 -134.688c-17.5225 -23.0605 -56.8945 -29.4609 -83.4385 -27.6299c-22.3945 1.5459 -44.333 14.1748 -30.5889 37.5703
c23.0352 39.2158 47.5986 77.2734 69.1523 117.379c14.1787 26.373 46.9727 35.2949 75.0049 37.4707c12.4834 0.96875 30.1162 -0.391602 41.3418 -7.02637z" />
    <glyph glyph-name="hyphen" unicode="-" horiz-adv-x="405" 
d="M301.304 225.912c15.7021 -0.0146484 60.6133 -2.07812 52.415 -30.0068c-7.63574 -26.0312 -51.5732 -37.0078 -74.7803 -37.3604c-58.7646 -0.893555 -117.329 -3.62207 -176.033 -6.03711c-15.71 -0.648438 -59.9365 2.51758 -51.9482 29.7451
c7.89941 26.9209 50.8115 34.9658 74.1143 37.0244c58.458 5.15723 117.567 6.69531 176.232 6.63477z" />
    <glyph glyph-name="period" unicode="." horiz-adv-x="232" 
d="M181.456 28.3496c-1.48145 -5.84082 -2.67285 -11.6143 -3.43164 -17.5156c-0.0859375 -3.3623 -0.0712891 -6.71387 0.131836 -10.0938c0.701172 -11.5498 -6.2041 -18.9287 -14.4277 -25.8057c-11.9668 -10.0039 -28.46 -14.7119 -43.4463 -17.9707
c-14.2959 -3.10547 -32.7373 -3.71094 -47.0156 0.388672c-7.33984 2.10449 -22.5049 8.44434 -23.043 18.5195c-0.804688 15.0361 0.445312 31.0303 5.7666 45.2334c4.34473 11.5957 15.2178 18.5225 25.5244 24.2246c14.5205 8.03125 31.8359 11.3545 48.2402 12.626
c17.4727 1.35352 58.4648 -2.97363 51.7012 -29.6064z" />
    <glyph glyph-name="slash" unicode="/" horiz-adv-x="497" 
d="M395.161 596.365c15.0186 1.16797 60.5547 -3.43359 50.9922 -29.1973c-47.9307 -129.082 -97.043 -257.612 -141.447 -387.977c-44.4902 -130.61 -85.4717 -262.381 -123.529 -395.007c-12.2871 -42.8193 -143.573 -54.2158 -130.225 -7.52148
c75.7666 265.077 162.546 529.891 271.463 783.357c11.1719 26.002 47.6768 34.4004 72.7461 36.3447z" />
    <glyph glyph-name="zero" unicode="0" horiz-adv-x="421" 
d="M61.5557 278.062c-17.3662 0.748047 -34.833 5.78418 -38.1592 20.9707c-11.6924 53.4043 8.27344 115.085 37.25 159.978c36.0176 55.7979 106.153 83.3027 170.79 80.0156c106.958 -5.43848 151.993 -116.691 163.618 -208.406
c5.91602 -46.6621 3.80078 -94.3076 -2.75586 -140.792c-6.34961 -45.0352 -16.4141 -91.1562 -37.6543 -131.722c-29.0264 -55.4375 -73.5732 -92.2812 -138.313 -97.6592c-52.5996 -4.37012 -102.535 15.2998 -127.708 63.2939
c-40.9072 78.0068 -36.1133 168.579 -27.0674 254.321zM203.276 20.9424c-1.99414 -0.994141 -7.64648 -7.61035 0.352539 0.12207h-0.00390625c-0.858398 -0.808594 -0.84375 -0.712891 -0.348633 -0.12207zM203.729 21.1641
c0.199219 0.188477 0.355469 0.337891 0.56543 0.544922c-0.231445 -0.224609 -0.398438 -0.380859 -0.56543 -0.544922zM203.611 21.335c1.73828 2.00195 6.20215 6.7832 6.1377 6.70508c0.0673828 0.0859375 0.12793 0.178711 0.195312 0.264648
c-5.91211 -0.826172 -9.37402 -2.74219 -6.33301 -6.96973zM243.867 28.4307c1.04688 -0.929688 1.05762 -0.473633 0 0zM199.812 476.126c2.49707 0.726562 8.1582 5.02441 -0.506836 -0.118164c0.00683594 0.00390625 0.0107422 0.00390625 0.0146484 0.00390625
c0.858398 0.488281 0.901367 0.445312 0.492188 0.114258zM165.463 430.737c-10.8799 -25.1973 -19.4658 -52.5527 -19.7119 -80.0186c21.248 0.733398 52.1689 -4.88672 49.2734 -30.832c-9.21387 -82.5117 -18 -170.587 14.7979 -249.349
c3.25195 -7.81055 7.60742 -16.1055 12.9814 -23.4531c1.2002 2.04102 2.40723 4.07812 3.50781 6.19336c7.43262 14.3027 13.2559 29.4707 18.167 44.8027c21.8389 68.167 29.9658 142.623 20.9336 213.706c-4.53027 35.6436 -13.2812 72.0205 -28.6416 104.647
c-7.19043 15.2715 -16.9414 29.7842 -29.0186 41.6299c-5 4.9043 -10.4238 8.64355 -16.6455 11.8701c-11.3936 -10.752 -19.5068 -24.9873 -25.6436 -39.1973z" />
    <glyph glyph-name="one" unicode="1" horiz-adv-x="384" 
d="M189.096 -40.749c-16.9844 -2.63867 -64.2617 -7.54492 -69.3691 18.7246c-4.9541 25.4717 37.1279 38.9307 55.9326 43.0518c-4.08496 83.082 3.05176 166.239 11.1113 248.912c4.2627 43.7061 8.95703 87.4092 11.9951 131.223
c1.0752 15.5391 1.83008 31.1523 1.57031 46.7412c-10.1641 -10.0928 -20.2754 -20.2354 -30.3076 -30.46c-21.2119 -21.6143 -53.5605 -29.585 -83.1816 -27.5439c-16.917 1.16797 -50.9473 16.5361 -30.4971 37.4561c24.0186 24.5703 48.3965 48.7812 73.2129 72.54
c30.5146 29.2188 56.1289 55.1709 99.8242 63.0059c38.9238 6.97656 80.8135 -1.26074 93.752 -42.4385c9 -28.6416 7.75684 -60.9658 6.41406 -90.5791c-5.82617 -128.431 -26.084 -255.863 -19.752 -384.621c21.3506 1.71289 52.2676 -0.00683594 56.3311 -20.9131
c5.11816 -26.3438 -39.9775 -40.8037 -58.4434 -44.208c-39.4502 -7.2793 -78.9502 -14.7295 -118.593 -20.8906z" />
    <glyph glyph-name="two" unicode="2" horiz-adv-x="400" 
d="M123.672 344.78c-21.9814 -4.77637 -59.9482 -6.05078 -70.0625 18.915c-13.0205 32.1533 12.1699 71.9062 28.5459 98.3682c19.8125 32.0176 47.8379 58.0449 80.4258 76.7285c63.166 36.21 166.562 45.6055 203.167 -31.0693
c13.8467 -29.0049 13.6396 -60.3457 11.168 -91.7617c-2.67773 -34.0723 -9.63672 -67.3721 -19.6982 -100.017c-19.6055 -63.6045 -48.9697 -123.559 -72.4004 -185.738c-5.75195 -15.2578 -11.1514 -30.6572 -15.9131 -46.2568
c-4.13867 -13.5518 -10.5596 -29.4502 -10.3105 -43.7568c0.0283203 -1.65234 1.06445 -5.21387 1.89453 -8.45117c0.577148 0.28125 1.21777 0.598633 1.94043 0.951172c25.3291 12.3975 66.3428 21.2979 92.5371 5.94824
c26.0059 -15.2324 3.2373 -39.4971 -15.0723 -48.8389c-51.207 -26.123 -218.657 -69.6797 -213.286 33.9873c1.63477 31.498 14.3457 63.4404 25.2334 92.748c11.0225 29.6738 23.6367 58.7207 35.9912 87.8535c24.6348 58.0801 48.8701 117.453 57.9941 180.288
c4.0498 27.8936 5.72363 58.2373 -3.55762 85.3154c-2.39648 6.99805 -6.80566 14.6797 -11.8057 20.4385c-1.36035 -1.2002 -2.65332 -2.375 -3.71777 -3.42578c-9.21387 -9.08496 -17.1631 -19.666 -24.2539 -30.4541
c-12.1943 -18.5586 -28.7803 -45.6113 -20.9453 -67.9951c8.75098 -24.998 -43.375 -40.6289 -57.874 -43.7773z" />
    <glyph glyph-name="three" unicode="3" horiz-adv-x="422" 
d="M67.46 331.168c-34.7168 6.36816 -56.1914 37.0166 -49.1113 71.4814c5.91211 28.7412 28.4453 54.8252 48.9883 74.5488c55.6836 53.4688 147.366 94.0342 224.521 69.1934c32.0283 -10.3105 61.083 -34.5537 60.3213 -70.8555
c-0.680664 -32.4629 -15.5889 -61.8701 -31.583 -89.3467c-10.9482 -18.8086 -23.7588 -36.082 -38.0293 -51.959c21.8105 -3.2832 42.6982 -10.5703 61.5674 -23.3164c94.375 -63.7578 60.7725 -211.074 -8.13867 -280.522
c-51.7451 -52.1475 -128.943 -79.6211 -201.762 -62.0635c-58.1592 14.0215 -81.4971 63.5439 -83.6377 118.961c-1.09375 28.2393 37.7119 40.2236 59.4053 44.9355c14.6768 3.1875 33.6064 3.80762 48.2617 -0.398438c7.50781 -2.1543 23.1318 -8.67578 23.6553 -19.0107
c1.02246 -20.1006 2.68164 -43.4209 13.416 -61.0293c3.82129 -6.27148 8.43359 -11.6025 14.2354 -15.542c7.9707 6.21094 11.9414 10.6484 19.1426 19.584c13.8467 17.1768 23.7939 36.0986 30.7891 57.0078c12.832 38.3574 16.8672 88.8311 -6.61328 124.274
c-4.49805 6.78809 -10.3926 14.2988 -16.4404 18.9746c-4.43066 3.42578 -9.87988 6.15723 -15.0615 8.30859c2.65332 -1.10449 -3.51172 0.487305 -4.19238 0.893555c-1.64551 0.192383 -3.29102 0.356445 -4.94336 0.484375
c-0.458984 -0.0351562 -1.12109 -0.0703125 -2.01855 -0.109375c-1.8623 -0.337891 -3.72168 -0.694336 -5.57031 -1.11133c-3.65039 -1.13965 -7.2793 -2.33594 -10.873 -3.63574c-2.05176 -0.737305 -18.2676 -7.48633 -8.0957 -3.07324
c-26.3301 -11.4219 -65.4346 -21.8213 -92.5264 -5.94824c-26.4971 15.5244 -2.60352 38.9414 15.0723 48.835c0.851562 0.477539 8.45215 5.15039 9.14648 5.44922c3.86426 2.57812 7.70312 5.18848 11.4463 7.94141c7.49023 5.5127 14.8086 11.3574 21.6855 17.6182
c10.0225 9.12402 23.9297 25.1328 34.1406 39.0898c10.752 14.6914 19.752 30.0879 27.085 46.748c7.26562 16.5 17.6758 40.1621 7.09473 57.5137c-1.56348 2.56445 -6.08301 6.43555 -8.85059 8.67188c-0.302734 -0.164062 -0.609375 -0.328125 -0.958008 -0.509766
c-1.01465 -0.53418 -10.5527 -5.68066 -9.5127 -4.96094c-3.98926 -2.55371 -14.9053 -10.5596 -20.707 -15.7021c-9.64453 -8.55469 -22.1982 -22.7012 -29.2744 -36.1172c-4.42383 -8.38379 -7.20215 -17.1914 -5.31836 -26.5508
c0.509766 -2.53223 1.9375 -5.32422 2.70703 -7.32227c2.9707 -7.69238 4.51953 -1.75879 0.462891 -0.97168c26.583 -5.16016 27.21 -28.6406 8.41211 -43.2852c-24.3994 -19.0107 -58.9141 -22.5684 -88.3389 -17.1729zM216.548 486.35
c3.3125 0.680664 3.24414 0.680664 -0.139648 0.0107422c-0.0927734 -0.0283203 -0.174805 -0.0566406 -0.267578 -0.0849609c0.135742 0.0322266 0.271484 0.0390625 0.407227 0.0742188z" />
    <glyph glyph-name="four" unicode="4" horiz-adv-x="370" 
d="M35.7881 209.348c-11.7568 46.4062 -12.8877 96.5 -13.5859 144.139c-0.722656 48.6172 0.55957 97.4238 3.50098 145.956c1.68066 27.7656 34.3428 38.5605 57.6738 43.6289c14.249 3.09473 32.623 3.69629 46.8545 -0.388672
c6.72363 -1.93066 23.0176 -8.58008 22.9639 -18.46c-0.419922 -79.7666 -3.79297 -159.244 5.3418 -238.729c3.47949 -30.2793 6.21484 -74.6729 31.4902 -96.0449c1.61328 0.573242 3.11621 1.10059 3.51172 1.24707
c0.320312 0.121094 0.544922 0.196289 0.804688 0.289062c0.30957 0.185547 0.629883 0.37793 1.05371 0.620117c1.53809 0.879883 3.1123 1.70996 4.69043 2.54004c0.298828 16.5039 0.757812 32.9902 1.26367 49.4268c1.34961 43.9131 3.23047 87.8115 4.01758 131.738
c0.37793 21.2012 0.584961 42.4023 0.264648 63.6074c-0.146484 9.80078 -0.363281 19.6016 -0.65918 29.3994c-0.146484 4.82227 -0.295898 9.64453 -0.449219 14.4668c-0.0498047 1.4707 -0.430664 3.66504 -0.71875 5.6416
c-1.52441 2.19727 -2.53613 4.74023 -2.87402 7.70312c-0.0644531 0.548828 -0.125 1.10059 -0.189453 1.64941c-2.33984 20.4355 24.6562 33.4238 40.2021 38.5059c0.669922 0.216797 1.33594 0.433594 2.00195 0.654297c23.0957 7.55078 62.0439 13.5664 81.4502 -6.47754
c11.9844 -12.376 8.83984 -41.7227 9.50586 -57.6924c0.918945 -22.0312 1.08594 -44.1123 0.936523 -66.1611c-0.295898 -43.8096 -1.96582 -87.6055 -3.07715 -131.397c-2.20801 -87.1104 -3.34375 -175.182 12.9785 -261.145
c5.1709 -27.2314 -41.1963 -40.9961 -59.4307 -44.9561c-18.6084 -4.04199 -66.8271 -7.21875 -71.9453 19.418c-8.57617 44.6289 -12.1416 89.9307 -13.2314 135.354c-22.5479 -4.74707 -45.623 -6.46387 -68.8193 -3.78223
c-25.4219 2.94141 -51.1318 11.4785 -68.4375 31.3018c-13.7725 15.7773 -22.0137 37.9189 -27.0889 57.9482zM191.735 188.162c2.72852 -1.77051 3.04883 -0.501953 0 0zM186.807 188.284c-1.80566 -0.117188 -2.02734 -0.360352 -1.14746 -0.414062
c0.0859375 0.0253906 0.171875 0.0507812 0.260742 0.0791016c0.238281 0.0927734 0.544922 0.207031 0.886719 0.334961z" />
    <glyph glyph-name="five" unicode="5" horiz-adv-x="375" 
d="M76.4385 208.6c-11.5254 -0.893555 -55.123 1.19824 -54.4287 21.7158c1.66309 48.8281 9.96094 97.5635 16.5566 145.893c3.34375 24.499 6.68066 49.0371 9.16309 73.6436c0.480469 4.7832 0.911133 9.56641 1.27441 14.3604
c0 0.0214844 0.00390625 0.0322266 0.00390625 0.0498047c0 0.170898 0.00390625 0.441406 0.0214844 0.94043c0.0712891 2.04102 0.207031 4.07422 0.246094 6.11816c0.0957031 4.93945 0.320312 10.1641 -1.01562 14.9648
c-6.99512 25.1543 41.0273 39.4248 56.5879 42.8047c19.6875 4.27734 51.1602 5.48145 64.708 -12.1445c13.6758 1.50293 27.3945 2.5752 41.1455 2.86719c15.7988 0.337891 31.6191 -0.0361328 47.4141 -0.243164
c2.46484 -0.0322266 4.93262 -0.0644531 7.40039 -0.0996094c0.71582 -0.00683594 1.5459 -0.0107422 2.60742 -0.0175781c11.71 -0.0712891 23.4199 -0.106445 35.127 -0.452148c19.3027 -0.573242 44.8096 -12.3652 34.1396 -34.418
c-11.0801 -22.8965 -49.793 -32.5762 -72.7041 -33.167c-19.6768 -0.505859 -39.3965 0.114258 -59.0771 0.40625c-1.49609 0.0214844 -9.55957 -0.00683594 -5.92285 0.0283203c-5.15332 -0.0253906 -10.3027 -0.0400391 -15.4561 -0.189453
c-3.30859 -0.0957031 -6.60645 -0.251953 -9.9043 -0.44043c-1.5459 -19.6768 -3.6543 -39.3037 -5.92285 -58.917c-2.45703 -21.2334 -5.10352 -42.4453 -7.63965 -63.6719c31.9004 5.0498 64.4697 2.99512 93.0723 -7.2334
c58.7861 -21.0195 90.5684 -82.1982 97.6484 -141.571c6.78418 -56.9014 -7.83594 -121.909 -46.5811 -165.541c-49.54 -55.7871 -157.905 -86.1201 -219.309 -32.7412c-47.8232 41.5762 -28.1426 107.097 -22.7432 161.042c1.13965 11.3613 17.5225 20.1406 26.3838 25.041
c15.0078 8.30566 32.9043 11.7354 49.8604 13.0527c21.4434 1.66309 56.0576 -2.91309 53.4404 -30.5996c-2.51465 -26.6221 -10.207 -53.5928 -7.04102 -80.4531c1.48535 -12.6113 5.31738 -21.9883 10.7236 -30.1973c11.9668 18.6016 18.9014 41.1631 22.7764 62.6924
c8.1875 45.4902 -2.06641 99.792 -30.8398 136.628c-5.7627 7.37598 -11.9629 14.0391 -20.0479 18.7549c-0.43457 0.25293 -1.62402 0.762695 -2.95605 1.3252c-5.38867 -5.10742 -11.6602 -12.4082 -17.1836 -20.9268
c-13.5195 -20.8486 -48.8418 -27.541 -71.5283 -29.3037zM210.391 23.3369c3.25195 -1.73047 3.49414 -1.78809 0.694336 -0.157227c-0.231445 0.0673828 -0.462891 0.0927734 -0.694336 0.157227zM264.71 519.484c-1.7666 0.0175781 -1.71289 0.0146484 0 0z" />
    <glyph glyph-name="six" unicode="6" horiz-adv-x="371" 
d="M159.072 -46.2559c-46.5127 1.78809 -90.3301 24.5234 -112.547 66.3887c-21.3506 40.2412 -27.7471 86.042 -26.3398 131.166c2.73828 87.9609 27.3125 178.889 72.3438 254.681c22.2773 37.4912 53.5225 74.3984 92.7275 94.7305
c38.5352 19.9834 140.878 38.3857 150.544 -26.5615c3.88867 -26.127 -38.1865 -38.6738 -56.3428 -42.6201c-9.75098 -2.11914 -27.8398 -3.95996 -43.0078 -1.01855c-2.35449 -3.03418 -4.61621 -6.06152 -6.71387 -8.96094
c-16.917 -23.4092 -29.2969 -49.3691 -39.4395 -76.3398c-16.5791 -44.0801 -29.7744 -91.8643 -34.6289 -139.467c18.5693 4.81836 37.6699 7.40723 56.4922 7.69922c55.8652 0.869141 116.773 -18.3916 135.393 -76.543
c13.0205 -40.668 -3.54004 -87.334 -30.7607 -118.429c-38.8662 -44.4043 -99.3789 -66.9658 -157.72 -64.7256zM210.613 453.126c-1.7627 8.63281 -0.43457 0.651367 0 0zM187.646 19.3633c0.103516 -0.0146484 0.201172 -0.0429688 0.318359 -0.0322266
c0.238281 0.15625 0.480469 0.337891 0.71875 0.498047c-0.345703 -0.15625 -0.691406 -0.30957 -1.03711 -0.46582zM188.128 19.374c1.08594 0.231445 2.29395 1.36035 0 0zM177.719 142.522c-5.52344 -4.15625 -5.22656 -3.96484 -9.16211 -8.18555
c-3.82812 -4.11719 -8.12305 -7.72461 -12.7529 -10.8838c4.03125 -36.9395 14.9971 -77.0127 42.8125 -95.3008c2.08301 2.26465 4.92188 5.38477 6.12207 6.90918c15.8379 20.1328 23.0674 46.6904 16.6064 71.7812c-2.89551 11.2471 -8.56543 22.2451 -17.5586 29.9268
c-2.52539 2.1582 -8.22363 5.77344 -10.2568 6.66406c-2.63574 1.15039 -5.7666 1.78125 -8.55566 2.45117c-0.551758 0.131836 -1.00098 0.238281 -1.37109 0.320312c-0.912109 -0.484375 -1.73145 -0.904297 -1.94531 -0.964844
c-1.65625 -1.13281 -3.5293 -2.4082 -3.93848 -2.71777z" />
    <glyph glyph-name="seven" unicode="7" horiz-adv-x="349" 
d="M97.2598 450.381c-20.5391 -7.10547 -64.4639 -14.3203 -80.9248 6.43262c-17.0918 21.5576 20.8164 40.7041 36.2764 46.0928c35.2266 12.2803 71.8701 19.8877 109.073 22.6973c32.0391 2.41797 68.7686 1.66699 97.6377 -14.4131
c55.4453 -30.8818 35.5332 -120.546 25.6221 -170.492c-7.78223 -39.2188 -16.4082 -78.1992 -24.9307 -117.162c6.95508 0.367188 13.9141 0.708984 20.8838 0.972656c15.9023 0.598633 60.7197 -2.51074 52.6172 -30.126
c-7.73535 -26.376 -51.6943 -36.7861 -75.0645 -37.5059c-4.27734 -0.131836 -8.55078 -0.313477 -12.8281 -0.480469c-13.1914 -63.5654 -24.6875 -127.43 -30.3965 -192.551c-1.01172 -11.5254 -17.9502 -20.582 -26.9004 -25.5322
c-15.2998 -8.46582 -33.5488 -11.9629 -50.8359 -13.3057c-21.9961 -1.70996 -56.9873 2.97656 -54.4873 31.1973c5.6416 63.7324 16.501 126.667 29.543 189.199c-4.66211 -0.65918 -9.32422 -1.31055 -13.9795 -2.01562
c-16.7998 -2.54297 -63.5088 -7.50098 -68.5625 18.5049c-4.90039 25.208 38.6777 40.0205 56.6387 42.8447c13.3877 2.10449 26.7891 4.04883 40.1982 5.88281c5.21777 22.875 10.5811 45.7148 15.9629 68.5332c12.0059 50.9072 29.3145 106.548 21.6113 159.382
c-0.666016 4.5625 -1.54883 11.3574 -3.89941 15.4424c-0.886719 1.53809 -3.85352 4.21973 -4.06055 4.83594c-0.185547 0.548828 -0.801758 1.01562 -1.45703 1.375c-2.60352 0.15332 -5.96191 0.192383 -7.07324 0.238281
c-3.71094 -0.166992 -7.41504 -0.402344 -11.1152 -0.711914c1.00098 -0.0429688 -10.8164 -1.51367 -12.1807 -1.77051c-1.59863 -0.298828 -11.3281 -2.57812 -12.3145 -2.66699c-5.06055 -1.49609 -10.0713 -3.17383 -15.0537 -4.89746z" />
    <glyph glyph-name="eight" unicode="8" horiz-adv-x="396" 
d="M85.5732 236.19c-15.5 15.3037 -29.835 31.5869 -41.2676 49.8291c-13.9717 22.3164 -23.5732 46.4346 -22.1699 73.0605c1.50977 28.6377 12.3262 53.7314 28.1992 77.4189c35.5576 53.0664 100.021 83.2246 162.375 88.125
c58.2549 4.58008 117.069 -16.4434 133.943 -76.9033c12.002 -42.9941 4.74023 -92.2354 -0.904297 -135.671c-5.85547 -45.0635 -14.2744 -89.7881 -23.3135 -134.311c-0.419922 -2.0625 -1.11816 -4.00391 -2.01562 -5.85938
c3.55078 -4.23438 7.02637 -8.54395 10.3701 -12.9678c30.999 -40.9814 58.8643 -99.0654 35.4688 -150.013c-52.7451 -114.861 -249.62 -128.05 -314.923 -18.6484c-30.0518 50.3525 -31.8359 110.609 -12.1875 165.218c9.50195 26.4014 23.709 54.3984 41.9512 75.9131
c1.41699 1.67383 2.94531 3.24121 4.47363 4.80859zM229.304 -17.0342c-0.00683594 -0.00390625 -0.0136719 -0.0078125 -0.0175781 -0.0078125c0.28125 -0.0888672 0.316406 -0.0957031 0.0175781 0.0078125zM220.226 -20.1289
c-0.288086 -0.170898 -0.577148 -0.359375 -0.873047 -0.566406c0.192383 0.12793 0.505859 0.331055 0.873047 0.566406zM230.243 -17.7822c0.648438 0.12793 1.45508 0.313477 2.5166 0.605469c-0.15625 -0.0429688 -0.316406 -0.0712891 -0.472656 -0.114258
c0.0429688 0.0253906 0.0683594 0.0576172 0.0537109 0.103516c-0.267578 0.851562 -1.63867 0.680664 -2.71777 0.282227c1.10742 -0.263672 2.20117 -0.484375 2.57129 -0.40625c-0.648438 -0.170898 -1.2998 -0.324219 -1.95117 -0.470703zM240.965 3.85352
c9.6875 22.6582 4.69531 46.9141 -5.10547 68.7783c-15.6309 34.8633 -42.6406 64.2236 -70.5127 90.7422c-1.15039 -3.21973 -2.24707 -6.45703 -3.25488 -9.70898c-8.70117 -28.0791 -11.0166 -56.6064 -4.64551 -85.4121
c5.74121 -25.9561 18.2705 -50.7617 38.8594 -68.1738c7.43945 -6.29004 19.8584 -12.875 25.8916 -14.8555c0.391602 -0.125 2.36816 -0.762695 4.17383 -1.34277c0.833008 0.637695 1.39551 1.04688 1.33496 0.947266c3.22266 3.07715 10.46 12.4795 13.2588 19.0254z
M192.516 456.804c2.35059 -0.730469 1.91211 -0.43457 0 0zM204.336 458.218c-0.676758 -0.203125 -2.98828 -0.499023 -4.30957 -0.626953c1.53809 0.131836 4.44824 0.445312 4.30957 0.626953zM157.211 393.328c-11.835 -47.3213 24.4658 -86.8184 56.7402 -117.867
c2.93457 18.7227 5.52051 37.499 7.47559 56.3574c2.5 24.1074 3.75 48.7881 0.345703 72.8711c-1.60254 11.3359 -3.90332 23.708 -9.6582 33.7119c-3.33008 5.78711 -8.0166 11.2217 -13.0811 15.5664c-0.865234 0.744141 -1.44238 1.20312 -1.91992 1.55566
c-3.14453 -2.2832 -6.31738 -4.70508 -6.8623 -5.17871c-14.7021 -12.875 -27.6836 -35.5869 -33.04 -57.0166z" />
    <glyph glyph-name="nine" unicode="9" horiz-adv-x="416" 
d="M254.271 131.148c3.15234 46.5986 4.44043 93.3467 3.91016 140.059c-20.4824 -17.9111 -43.5254 -32.3818 -69.7666 -41.3496c-40.2949 -13.7646 -92.6592 -18.167 -130.688 4.71191c-57.0088 34.2969 -47.3604 111.766 -19.7734 162.058
c30.4004 55.4238 82.3945 94.8525 142.284 114.252c46.5518 15.0791 128.319 23.79 167.432 -14.9014c11.3936 -2.63867 21.166 -8.21582 24.1182 -19.1963c17.2051 -63.9609 17.8281 -133.242 18.5977 -199.111c0.780273 -66.9307 -0.679688 -135.407 -10.4775 -201.711
c-4.40234 -29.7842 -10.4463 -60.2451 -26.5723 -86.1152c-23.5127 -37.7158 -72.1875 -54.291 -114.47 -57.2578c-65.2461 -4.58398 -131.963 29.3535 -147.063 96.6621c-6.04785 26.9492 41.9824 41.1914 59.4795 44.9912
c19.7695 4.29492 65.3311 7.03418 72.002 -19.4346c2.94141 -11.6777 8.34766 -22.9961 15.8086 -32.3555c3.18359 12.209 5.125 25.1475 7.04492 36.2197c4.15234 23.9619 6.49609 48.2295 8.13477 72.4795zM224.838 -8.52148c-4.4375 -2.70312 -2.85938 -2.72852 0 0z
M266.906 2.96777c2.22559 -0.783203 4.33008 -1.58887 4.57617 -1.7666c-1.23926 0.875977 -2.81348 1.4248 -4.57617 1.7666zM225.832 457.022c7.62891 4.33105 3.12012 1.90234 -1.05371 -0.0703125c0.348633 0.0175781 0.697266 0.0136719 1.05371 0.0703125z
M223.916 456.895c-1.16797 0.43457 -2.15723 0.633789 -2.79492 0.519531c0.904297 -0.331055 1.84082 -0.480469 2.79492 -0.519531zM163.439 287.839c1.39941 -1.21094 3.62598 -2.19336 3.62207 -1.75879c-0.0175781 1.27148 -1.43848 1.75195 -3.62207 1.75879z
M179.994 323.999c26.8535 36.085 43.5254 78.3809 58.1738 120.713c-2.51758 3.81055 -5.76172 7.04785 -9.80762 9.81836c-1.43555 0.983398 -2.82129 1.7168 -4.04297 2.21582c-1.26758 -0.59082 -2.46387 -1.11816 -3.21582 -1.36035
c-0.277344 -0.106445 -0.473633 -0.181641 -0.726562 -0.277344c-2.73926 -1.2959 -5.45703 -2.63477 -8.125 -4.07324c-1.39648 -0.672852 -2.2832 -1.05762 -2.86719 -1.28223c-0.551758 -0.473633 -1.38184 -1.14355 -2.63867 -2.10547
c-4.10254 -3.13379 -8.3125 -6.09375 -12.2803 -9.41309c-4.42383 -3.7041 -4.00684 -3.19824 -9.74805 -9.55566c-3.46484 -3.83203 -6.77344 -7.81055 -9.91113 -11.917c-6.40332 -8.37988 -11.7949 -16.9775 -16.1113 -26.583
c-9.93652 -22.1133 -16.7393 -47.3174 -11.9922 -71.5566c1.87695 -9.59473 4.9502 -15.7383 9.67969 -22.1562c8.6582 8.34473 16.4902 17.9639 23.6133 27.5332z" />
    <glyph glyph-name="colon" unicode=":" horiz-adv-x="236" 
d="M162.639 324.205c6.12598 -1.53125 23.4697 -8.87988 22.8574 -18.375c-0.744141 -11.4541 -2.18262 -22.7764 -3.66016 -34.1484c-2.87793 -7.00195 -7.45801 -12.668 -13.7373 -16.999c-3.99219 -2.46777 -7.98145 -4.93555 -11.9736 -7.40332
c-14.623 -8.0918 -32.0674 -11.4355 -48.5928 -12.7178c-12.3652 -0.958008 -29.8379 0.388672 -40.957 6.96289c-4.92578 2.05469 -8.20605 5.43848 -9.84082 10.1611c-2.70996 3.78906 -3.14062 8.02051 -1.28516 12.6963
c1.16797 8.49805 2.11133 17.0811 3.81055 25.4893c2.86328 6.95898 7.41113 12.5898 13.6504 16.8926c3.96387 2.4541 7.93164 4.9043 11.8955 7.3584c11.9453 6.61035 26.3086 9.84766 39.7393 11.5537c12.7539 1.61719 25.5469 1.66309 38.0938 -1.4707zM177.927 83.1064
c2.17969 -10.8486 3.33105 -21.7383 2.97852 -32.8037c0.754883 -6.62109 -1.12207 -12.4336 -5.63086 -17.4375l-8.73047 -8.24707c-11.9131 -9.96191 -28.3281 -14.6484 -43.2432 -17.8896c-14.2285 -3.09473 -32.5811 -3.69336 -46.7949 0.384766
c-6.95508 1.99805 -22.7432 8.49805 -22.9316 18.4346c-0.209961 11.0264 -1.12891 21.9248 -3.25488 32.7549c-2.14746 10.9443 6.91309 19.4844 14.3926 25.7383c11.9385 9.98242 28.3887 14.6797 43.3359 17.9277c14.2598 3.09863 32.6514 3.7002 46.8936 -0.388672
c8.85352 -2.53906 20.9023 -8.0918 22.9854 -18.4736z" />
    <glyph glyph-name="semicolon" unicode=";" horiz-adv-x="285" 
d="M102.055 254.649c-0.348633 6.47168 -0.704102 12.9453 -1.05273 19.4131c-0.744141 6.50293 1.10059 12.2119 5.53125 17.127c2.86035 2.69922 5.7168 5.40234 8.57715 8.10156c11.6992 9.78711 27.8291 14.3916 42.4814 17.5752
c8.1377 1.82031 16.3398 2.49707 24.6094 2.04492c7.22656 0.320312 14.3457 -0.488281 21.3613 -2.42578c5.76562 -1.0332 10.7129 -3.4834 14.8516 -7.35156c4.10254 -2.33594 6.66016 -5.92188 7.68262 -10.7588c0.477539 -6.44629 0.958008 -12.8926 1.43555 -19.3389
c0.836914 -11.2754 -6.1543 -18.623 -14.1494 -25.3076c-11.7422 -9.81543 -27.915 -14.4346 -42.6133 -17.626c-8.16602 -1.82715 -16.3926 -2.50781 -24.6875 -2.05176c-7.24414 -0.320312 -14.3848 0.488281 -21.4258 2.43262
c-5.78027 1.0332 -10.7451 3.49023 -14.8945 7.37207c-4.11719 2.34668 -6.68164 5.94336 -7.70703 10.7939zM110.795 85.3535c11.2578 39.7461 134.757 53.2188 123.577 7.13672c-12.8994 -53.1445 -33.2285 -102.051 -60.3887 -149.461
c-12.875 -22.4727 -55.2461 -28.8516 -78.0146 -28.5811c-11.1221 0.131836 -23.4658 1.14355 -33.3486 6.93457c-6.48926 3.80371 -16.2656 14.168 -11.2334 23.0859c25.1152 44.5215 45.4619 91.665 59.4082 140.885z" />
    <glyph glyph-name="less" unicode="&#x3c;" horiz-adv-x="422" 
d="M327.523 194.418c19.3213 -3.12305 50.9619 -14.2842 31.8584 -39.125c-17.5791 -22.8574 -59.5186 -32.9541 -86.8994 -28.7725c-45.2773 6.91602 -90.9922 13.7471 -135.005 26.7539c-30.4541 8.99609 -96.1348 25.8066 -86.5293 70.2109
c4.55859 21.0801 25.5566 37.4697 42.7764 48.4502c19.6592 12.5293 40.4727 22.4834 61.7207 31.9922c43.1191 19.2959 87.2744 37.6904 132.078 52.7559c21.6328 7.27246 57.8848 12.9424 77.4375 -3.41211c18.6016 -15.5605 -1.99414 -36.2383 -18.1992 -43.3613
c-19.2031 -8.44043 -38.7588 -16.0371 -58.208 -23.8906c-7.99219 -3.22656 -15.9951 -6.44238 -23.959 -9.74707c-0.726562 -0.337891 -12.6504 -5.41309 -14.4912 -6.21484c-15.542 -6.7666 -31.0127 -13.7432 -46.21 -21.2617
c-3.67578 -1.79102 -7.32227 -3.63965 -10.9404 -5.54492c-2.13379 -1.20703 -3.62988 -2.04785 -4.54199 -2.54688c-3.00195 -2.09375 -5.9043 -4.31934 -8.66797 -6.72656c0.847656 0.0712891 1.31055 0.445312 1.38574 1.11816
c-0.609375 -3.66504 8.56152 -7.90332 14.7012 -10.4316c14 -5.76562 29.2861 -9.57617 43.9414 -13.3047c31.6367 -8.04492 57.4648 -12.0479 87.752 -16.9414z" />
    <glyph glyph-name="equal" unicode="=" horiz-adv-x="432" 
d="M125.407 263.55c-17.2021 -2.86719 -65.2354 -7.52148 -70.3848 18.9971c-5.06836 26.0664 39.7422 40.8105 58.1445 43.9834c61.126 10.5459 122.971 16.7822 185.015 17.3447c15.834 0.142578 60.9365 -2.2041 52.7275 -30.1904
c-7.66113 -26.1162 -51.9053 -37.3311 -75.2256 -37.584c-26.918 -0.288086 -53.7969 -1.40332 -80.6221 -3.68262c-11.9238 -1.01465 -23.8516 -2.2041 -35.7324 -3.68164c-1.6416 -0.274414 -13.3193 -1.89844 -13.1201 -1.87012
c-6.94824 -1.0332 -13.875 -2.16211 -20.8018 -3.31641zM328.247 213.217c15.9443 0.398438 61.0928 -2.38965 52.9014 -30.2939c-7.76074 -26.4551 -51.998 -37.0859 -75.4785 -37.7129c-27.666 -0.737305 -55.2998 -2.05469 -82.8867 -4.26953
c-13.7861 -1.10742 -27.5547 -2.41797 -41.3057 -3.89941c-6.01855 -0.648438 -12.0342 -1.33984 -18.042 -2.0625c-2.55371 -0.337891 -12.0557 -1.54492 -12.6465 -1.62012c-6.29688 -0.808594 -16.6396 -2.07617 -27.4951 -2.07227
c-7.79297 -1.62793 -15.1934 -2.42578 -21.1621 -2.42578c-15.3281 0 -59.1631 2.04395 -51.168 29.2998c7.38672 25.1836 50.4238 36.4736 73 36.4736c1.77734 0 3.9502 -0.0283203 6.36523 -0.121094c3.07324 0.772461 5.87598 1.34961 8.24121 1.71973
c62.7314 9.79395 126.215 15.3926 189.677 16.9844z" />
    <glyph glyph-name="greater" unicode="&#x3e;" horiz-adv-x="419" 
d="M367.796 265.84c11.5957 -40.4941 -57.9102 -70.6357 -85.376 -84.9102c-40.4795 -21.041 -83.1885 -36.6152 -127.287 -47.9941c-18.5449 -4.78711 -58.6689 -6.0332 -69.2432 15.2148c-10.8018 21.7041 24.0967 39.0664 39.7852 44.0166
c13.7793 4.34863 27.5547 8.64062 41.0957 13.6982c3.50098 1.30664 6.98047 2.66309 10.4531 4.04883c0.875977 0.380859 1.91992 0.833008 3.26953 1.4209c5.65234 2.58594 11.3008 5.16113 16.8926 7.88184c12.3867 6.0293 24.5352 12.5615 36.3916 19.585
c-50.4658 25.6963 -107.001 35.6152 -161.93 47.083c-23.6729 4.94336 -28.2959 24.165 -12.9355 39.9775c18 18.5342 55.3389 28.1963 80.5332 23.9902c42.1533 -7.03711 84.332 -15.1895 125.143 -28.0781c19.8516 -6.26855 39.4678 -13.6768 58.4971 -22.1143
c15.5283 -6.88477 39.501 -15.6211 44.7109 -33.8203z" />
    <glyph glyph-name="question" unicode="?" horiz-adv-x="475" 
d="M227.073 481.979c1.49219 -0.0644531 0.972656 -0.0605469 0 0zM424.571 451.963c3.42969 -28.7158 -4.76562 -58.0303 -16.1699 -84.0859c-45.8857 -104.821 -143.307 -201.512 -128.412 -324.279c3.39062 -27.9434 -39.9131 -40.9316 -59.8252 -45.2549
c-17.5615 -3.81836 -68.8643 -7.36914 -72.4219 19.5449c-18.2236 137.894 89.0693 235.553 136.975 353.647c9.9082 24.4316 19.1113 55.2598 5.27539 80.1973c-5.52344 9.95801 -14.2842 17.166 -24.0537 22.5615c-6.05078 3.34375 -8.94238 4.33398 -14.2422 5.89355
c-2.83105 0.808594 -5.70117 1.47852 -8.5752 2.1123c-0.893555 0.106445 -2.17188 0.270508 -3.92773 0.501953c-3.12695 0.166992 -4.79688 0.294922 -5.16016 0.387695c-1.06836 -0.0429688 -2.14062 -0.0361328 -3.20898 -0.111328
c-5.81934 -0.328125 -6.8877 -0.598633 -6.34277 -0.794922c0.146484 0.0351562 0.25293 0.0605469 0.40625 0.0957031c-0.114258 -0.0351562 -0.224609 -0.0810547 -0.334961 -0.116211c0.466797 -0.131836 1.66016 -0.227539 2.51855 -0.28125
c-0.620117 0.0253906 -1.58203 0.0605469 -3.00293 0.110352c-1.49902 -0.480469 -2.9668 -1.04297 -4.45215 -1.57031c1.14355 -0.078125 -12.7217 -6.83789 -8.59766 -3.99902c-18.2061 -11.6465 -35.8994 -30.6367 -35.8672 -54.6484
c0.0351562 -27.0674 -35.1055 -38.1504 -56.6133 -42.8232c-13.9863 -3.04102 -32.0254 -3.62891 -45.9932 0.37793c-6.6709 1.91602 -22.5195 8.39746 -22.541 18.1172c-0.15332 71.9883 72.54 121.108 135.187 139.069c61.0508 17.5049 137.38 21.0127 192.726 -15.7812
c24.0898 -16.0156 43.1221 -39.2969 46.6553 -68.8711zM260.633 -28.5371c6.31836 -1.57422 24.1641 -9.13867 23.5371 -18.9111c-0.983398 -15.4492 -1.30371 -30.8848 -0.744141 -46.3594c1.01465 -28.1211 -37.4854 -40.0273 -59.1357 -44.7324
c-14.6094 -3.17285 -33.4492 -3.79297 -48.041 0.395508c-7.58594 2.17578 -22.9111 8.60742 -23.5449 18.9219c-1.13965 18.5303 -0.380859 36.8682 1.48145 55.334c1.14355 11.333 17.4619 20.0762 26.3047 24.9697c12.3018 6.80566 27.0957 10.1396 40.9209 11.8955
c13.1309 1.66699 26.3008 1.71289 39.2217 -1.51367z" />
    <glyph glyph-name="at" unicode="@" horiz-adv-x="868" 
d="M733.537 517.419c66.0088 -56.1465 90.8076 -137.42 82.5205 -221.93c-7.60742 -77.5869 -38.5137 -156.77 -94.4395 -212.343c-36.6406 -36.4092 -80.5469 -62.0977 -131.715 -71.8486c-44.1904 -8.41895 -105.085 -4.78223 -132.683 36.915
c-12.1484 18.3555 -16.9492 38.8086 -18.0322 59.8105c-1.43848 -1.34668 -2.83496 -2.72168 -4.30273 -4.04688c-51.2783 -46.3242 -145.886 -80.7207 -206.527 -32.5088c-49.6182 39.4473 -35.9668 103.604 -7.36133 151.121
c31.9746 53.1084 79.9121 99.3252 140.561 116.947c44.9062 13.0459 110.911 16.458 151.555 -14.167c40.3232 13.1699 95.4941 9.2666 86.0352 -21.1377c-13.4053 -43.0791 -23.4775 -87.0459 -28.8057 -131.878c-3.37988 -28.4453 -6.21484 -64.8008 12.8428 -88.5449
c1.25391 -1.56348 2.35059 -2.68164 3.41211 -3.63965c2.35742 1.63477 5.12793 3.49023 5.24219 3.5791c2.92383 2.2334 5.80469 4.55176 8.61816 6.92773c22.0742 18.666 43.9912 50.3164 57.3857 80.0371c27.8398 61.7812 41.5303 135.721 23.5488 202.089
c-15.624 57.6602 -58.8105 104.903 -111.809 131.13c-30.9453 15.3105 -58.9639 20.1221 -89.9414 21.9736c-2.25098 0.135742 -3.50488 0.25 -4.16016 0.335938c-0.819336 -0.0859375 -2.17969 -0.189453 -4.48438 -0.321289
c-4.10254 -0.231445 -8.19824 -0.317383 -12.3008 -0.584961c-4.01758 -0.263672 -8.02051 -0.652344 -12.0303 -1.01172c-0.395508 -0.0644531 -0.754883 -0.125 -1.2041 -0.200195c-7.10547 -1.1748 -14.1816 -2.45703 -21.2119 -4.02051
c-1.94824 -0.43457 -3.88574 -0.922852 -5.82715 -1.38965c-1.2041 -0.337891 -2.54004 -0.729492 -3.3418 -1.00391c-8.49805 -2.93066 -17.0205 -5.6377 -25.4502 -8.7793c-0.40918 -0.15332 -0.737305 -0.274414 -1.09375 -0.410156
c-3.79297 -1.69531 -7.5752 -3.4082 -11.3223 -5.20996c-6.48145 -3.11621 -12.8633 -6.41797 -19.1562 -9.89746c-3.83203 -2.11914 -7.64258 -4.28809 -11.3926 -6.55273c-0.55957 -0.384766 -1.17969 -0.804688 -1.93066 -1.31738
c-24.9766 -17.0732 -46.7119 -34.5283 -65.082 -54.5469c-92.1426 -100.423 -119.976 -245.812 -85.9453 -376.181c15.1787 -58.1484 45.3301 -118.477 100.839 -147.242c7.63965 -3.95996 13.1064 -6.14648 21.4795 -8.60059
c3.78906 -1.11133 7.61719 -2.02344 11.4492 -2.9668c0.495117 -0.125 5.79492 -1.03711 5.81641 -1.10156c6.12207 -0.84375 12.3652 -1.41406 18.5439 -1.56738c-3.25488 0.263672 10.6416 1.17871 14.292 1.19336c3.25195 0.551758 8.13086 1.32812 8.94336 1.49219
c2.52148 0.509766 5.06055 1.05469 7.59277 1.63867c1.50293 0.466797 4.3418 1.30762 5.33594 1.67773c4.83691 1.79492 9.78711 3.36914 14.6523 5.09961c1.1748 0.416992 1.94434 0.680664 2.44336 0.836914c3.78613 1.63867 7.52246 3.39844 11.2402 5.18652
c8.43359 4.05273 16.6816 8.42969 24.8516 12.9844c23.6338 13.1777 66.0156 20.2725 90.6611 5.83105c26.0771 -15.2822 2.39648 -38.0293 -14.7695 -47.8516c-95.9639 -54.918 -225.883 -80.8701 -328.304 -27.7148c-79.998 41.5156 -119.363 131.429 -133.011 216.427
c-26.4863 164.957 39.3721 335.199 175.854 433.15c141.401 101.48 361.18 133.84 501.918 14.1318zM346.939 487.039c2.04785 1.30371 5.24219 3.56543 0 0zM386.882 507.898c-4.68359 -1.75586 -2.43652 -0.943359 0 0zM446.736 524.331
c2.9209 0.30957 10.6348 1.74902 0 0zM398.133 282.782c0 -0.00390625 -0.00488281 -0.00488281 -0.00878906 -0.00878906c0.0751953 0.0253906 0.118164 0.0400391 0.204102 0.0722656c-0.0283203 -0.00683594 -0.0566406 -0.0175781 -0.0849609 -0.0244141
c-0.0351562 -0.0107422 -0.078125 -0.0283203 -0.110352 -0.0390625zM346.405 116.098c3.7041 -1.90918 3.77832 -1.92969 0.149414 -0.0244141c-0.0498047 0.0107422 -0.0996094 0.0175781 -0.149414 0.0244141zM342.334 138.85
c32.498 35.4043 54.7705 77.833 76.4277 120.314c-4.78711 8.2666 -10.7031 14.5059 -16.708 18.9219c-0.711914 0.523438 -1.28516 0.951172 -1.76953 1.31836c0.0927734 -0.324219 -0.84082 -0.131836 -4.2168 1.48145
c-0.374023 -0.30957 -0.769531 -0.629883 -1.26465 -1.01465c-4.44141 -3.46484 -9.02539 -6.78418 -13.1465 -10.6416c-27.2949 -25.5498 -64.5801 -74.6729 -57.251 -117.104c1.4248 -8.24512 3.96387 -15.9062 8.61133 -22.7373
c3.13086 2.93457 6.12598 5.98633 9.31738 9.46191zM576.344 74.1104c0.138672 0.0673828 0.274414 0.139648 0.413086 0.207031h-0.0146484c-0.146484 -0.0751953 -0.242188 -0.128906 -0.398438 -0.207031z" />
    <glyph glyph-name="A" unicode="A" horiz-adv-x="620" 
d="M60.5557 112.254c-17.4971 -2.32227 -65.874 -8.00977 -71.1631 19.207c-5.03906 25.9346 40.1064 41.8828 58.79 44.4688c46.9688 6.49609 94.0654 12.1016 141.255 16.7676c1.99414 7.85352 3.97754 15.7139 5.98242 23.5635
c34.8779 136.657 72.751 272.573 113.786 407.511c2.13672 7.01953 7.49316 13.167 14.8691 18.3457c-3.67188 23.4385 45.8037 38.2686 59.7188 41.292c21.6748 4.71191 61.9404 6.41113 71.3145 -19.2461c24.4775 -66.9912 44.9912 -135.311 62.9941 -204.307
c63.4658 -243.241 97.5098 -494.14 184.281 -731.027c9.3916 -25.6387 -45.1172 -42.0322 -59.7764 -45.2158c-22.0674 -4.79688 -62.75 -6.47754 -72.3623 19.5322c-24.7129 66.8809 -45.2666 135.158 -63.2627 204.133
c-20.1152 77.0986 -37.1787 154.991 -53.8281 232.991c-50.3525 -0.780273 -100.665 -2.42578 -150.932 -5.25684c-26.166 -107.51 -50.1279 -215.465 -74.6455 -323.413c-9.41992 -41.459 -137.256 -56.2002 -127.739 -7.37988
c20.9453 107.475 46.0498 214.372 72.5439 320.746c-5.75195 -0.555664 -11.5107 -1.04004 -17.2588 -1.62793c-35.1904 -3.59375 -68.1162 -7.56836 -94.5674 -11.084zM324.37 223.711c-1.77344 -6.8877 -3.48242 -13.7852 -5.23145 -20.6768
c39.8311 2.39648 79.7051 4.04883 119.601 4.93555c-16.9131 79.3066 -34.208 158.503 -54.6221 236.873c-20.7383 -73.4805 -40.7002 -147.182 -59.7471 -221.132z" />
    <glyph glyph-name="A" unicode="&#xc5;" horiz-adv-x="620" 
d="M60.5557 112.254c-17.4971 -2.32227 -65.874 -8.00977 -71.1631 19.207c-5.03906 25.9346 40.1064 41.8828 58.79 44.4688c46.9688 6.49609 94.0654 12.1016 141.255 16.7676c1.99414 7.85352 3.97754 15.7139 5.98242 23.5635
c34.8779 136.657 72.751 272.573 113.786 407.511c2.13672 7.01953 7.49316 13.167 14.8691 18.3457c-3.67188 23.4385 45.8037 38.2686 59.7188 41.292c21.6748 4.71191 61.9404 6.41113 71.3145 -19.2461c24.4775 -66.9912 44.9912 -135.311 62.9941 -204.307
c63.4658 -243.241 97.5098 -494.14 184.281 -731.027c9.3916 -25.6387 -45.1172 -42.0322 -59.7764 -45.2158c-22.0674 -4.79688 -62.75 -6.47754 -72.3623 19.5322c-24.7129 66.8809 -45.2666 135.158 -63.2627 204.133
c-20.1152 77.0986 -37.1787 154.991 -53.8281 232.991c-50.3525 -0.780273 -100.665 -2.42578 -150.932 -5.25684c-26.166 -107.51 -50.1279 -215.465 -74.6455 -323.413c-9.41992 -41.459 -137.256 -56.2002 -127.739 -7.37988
c20.9453 107.475 46.0498 214.372 72.5439 320.746c-5.75195 -0.555664 -11.5107 -1.04004 -17.2588 -1.62793c-35.1904 -3.59375 -68.1162 -7.56836 -94.5674 -11.084zM324.37 223.711c-1.77344 -6.8877 -3.48242 -13.7852 -5.23145 -20.6768
c39.8311 2.39648 79.7051 4.04883 119.601 4.93555c-16.9131 79.3066 -34.208 158.503 -54.6221 236.873c-20.7383 -73.4805 -40.7002 -147.182 -59.7471 -221.132z" />
    <glyph glyph-name="A" unicode="&#xc4;" horiz-adv-x="620" 
d="M60.5557 112.254c-17.4971 -2.32227 -65.874 -8.00977 -71.1631 19.207c-5.03906 25.9346 40.1064 41.8828 58.79 44.4688c46.9688 6.49609 94.0654 12.1016 141.255 16.7676c1.99414 7.85352 3.97754 15.7139 5.98242 23.5635
c34.8779 136.657 72.751 272.573 113.786 407.511c2.13672 7.01953 7.49316 13.167 14.8691 18.3457c-3.67188 23.4385 45.8037 38.2686 59.7188 41.292c21.6748 4.71191 61.9404 6.41113 71.3145 -19.2461c24.4775 -66.9912 44.9912 -135.311 62.9941 -204.307
c63.4658 -243.241 97.5098 -494.14 184.281 -731.027c9.3916 -25.6387 -45.1172 -42.0322 -59.7764 -45.2158c-22.0674 -4.79688 -62.75 -6.47754 -72.3623 19.5322c-24.7129 66.8809 -45.2666 135.158 -63.2627 204.133
c-20.1152 77.0986 -37.1787 154.991 -53.8281 232.991c-50.3525 -0.780273 -100.665 -2.42578 -150.932 -5.25684c-26.166 -107.51 -50.1279 -215.465 -74.6455 -323.413c-9.41992 -41.459 -137.256 -56.2002 -127.739 -7.37988
c20.9453 107.475 46.0498 214.372 72.5439 320.746c-5.75195 -0.555664 -11.5107 -1.04004 -17.2588 -1.62793c-35.1904 -3.59375 -68.1162 -7.56836 -94.5674 -11.084zM324.37 223.711c-1.77344 -6.8877 -3.48242 -13.7852 -5.23145 -20.6768
c39.8311 2.39648 79.7051 4.04883 119.601 4.93555c-16.9131 79.3066 -34.208 158.503 -54.6221 236.873c-20.7383 -73.4805 -40.7002 -147.182 -59.7471 -221.132z" />
    <glyph glyph-name="A" unicode="&#xc3;" horiz-adv-x="620" 
d="M60.5557 112.254c-17.4971 -2.32227 -65.874 -8.00977 -71.1631 19.207c-5.03906 25.9346 40.1064 41.8828 58.79 44.4688c46.9688 6.49609 94.0654 12.1016 141.255 16.7676c1.99414 7.85352 3.97754 15.7139 5.98242 23.5635
c34.8779 136.657 72.751 272.573 113.786 407.511c2.13672 7.01953 7.49316 13.167 14.8691 18.3457c-3.67188 23.4385 45.8037 38.2686 59.7188 41.292c21.6748 4.71191 61.9404 6.41113 71.3145 -19.2461c24.4775 -66.9912 44.9912 -135.311 62.9941 -204.307
c63.4658 -243.241 97.5098 -494.14 184.281 -731.027c9.3916 -25.6387 -45.1172 -42.0322 -59.7764 -45.2158c-22.0674 -4.79688 -62.75 -6.47754 -72.3623 19.5322c-24.7129 66.8809 -45.2666 135.158 -63.2627 204.133
c-20.1152 77.0986 -37.1787 154.991 -53.8281 232.991c-50.3525 -0.780273 -100.665 -2.42578 -150.932 -5.25684c-26.166 -107.51 -50.1279 -215.465 -74.6455 -323.413c-9.41992 -41.459 -137.256 -56.2002 -127.739 -7.37988
c20.9453 107.475 46.0498 214.372 72.5439 320.746c-5.75195 -0.555664 -11.5107 -1.04004 -17.2588 -1.62793c-35.1904 -3.59375 -68.1162 -7.56836 -94.5674 -11.084zM324.37 223.711c-1.77344 -6.8877 -3.48242 -13.7852 -5.23145 -20.6768
c39.8311 2.39648 79.7051 4.04883 119.601 4.93555c-16.9131 79.3066 -34.208 158.503 -54.6221 236.873c-20.7383 -73.4805 -40.7002 -147.182 -59.7471 -221.132z" />
    <glyph glyph-name="A" unicode="&#xc2;" horiz-adv-x="620" 
d="M60.5557 112.254c-17.4971 -2.32227 -65.874 -8.00977 -71.1631 19.207c-5.03906 25.9346 40.1064 41.8828 58.79 44.4688c46.9688 6.49609 94.0654 12.1016 141.255 16.7676c1.99414 7.85352 3.97754 15.7139 5.98242 23.5635
c34.8779 136.657 72.751 272.573 113.786 407.511c2.13672 7.01953 7.49316 13.167 14.8691 18.3457c-3.67188 23.4385 45.8037 38.2686 59.7188 41.292c21.6748 4.71191 61.9404 6.41113 71.3145 -19.2461c24.4775 -66.9912 44.9912 -135.311 62.9941 -204.307
c63.4658 -243.241 97.5098 -494.14 184.281 -731.027c9.3916 -25.6387 -45.1172 -42.0322 -59.7764 -45.2158c-22.0674 -4.79688 -62.75 -6.47754 -72.3623 19.5322c-24.7129 66.8809 -45.2666 135.158 -63.2627 204.133
c-20.1152 77.0986 -37.1787 154.991 -53.8281 232.991c-50.3525 -0.780273 -100.665 -2.42578 -150.932 -5.25684c-26.166 -107.51 -50.1279 -215.465 -74.6455 -323.413c-9.41992 -41.459 -137.256 -56.2002 -127.739 -7.37988
c20.9453 107.475 46.0498 214.372 72.5439 320.746c-5.75195 -0.555664 -11.5107 -1.04004 -17.2588 -1.62793c-35.1904 -3.59375 -68.1162 -7.56836 -94.5674 -11.084zM324.37 223.711c-1.77344 -6.8877 -3.48242 -13.7852 -5.23145 -20.6768
c39.8311 2.39648 79.7051 4.04883 119.601 4.93555c-16.9131 79.3066 -34.208 158.503 -54.6221 236.873c-20.7383 -73.4805 -40.7002 -147.182 -59.7471 -221.132z" />
    <glyph glyph-name="A" unicode="&#xc1;" horiz-adv-x="620" 
d="M60.5557 112.254c-17.4971 -2.32227 -65.874 -8.00977 -71.1631 19.207c-5.03906 25.9346 40.1064 41.8828 58.79 44.4688c46.9688 6.49609 94.0654 12.1016 141.255 16.7676c1.99414 7.85352 3.97754 15.7139 5.98242 23.5635
c34.8779 136.657 72.751 272.573 113.786 407.511c2.13672 7.01953 7.49316 13.167 14.8691 18.3457c-3.67188 23.4385 45.8037 38.2686 59.7188 41.292c21.6748 4.71191 61.9404 6.41113 71.3145 -19.2461c24.4775 -66.9912 44.9912 -135.311 62.9941 -204.307
c63.4658 -243.241 97.5098 -494.14 184.281 -731.027c9.3916 -25.6387 -45.1172 -42.0322 -59.7764 -45.2158c-22.0674 -4.79688 -62.75 -6.47754 -72.3623 19.5322c-24.7129 66.8809 -45.2666 135.158 -63.2627 204.133
c-20.1152 77.0986 -37.1787 154.991 -53.8281 232.991c-50.3525 -0.780273 -100.665 -2.42578 -150.932 -5.25684c-26.166 -107.51 -50.1279 -215.465 -74.6455 -323.413c-9.41992 -41.459 -137.256 -56.2002 -127.739 -7.37988
c20.9453 107.475 46.0498 214.372 72.5439 320.746c-5.75195 -0.555664 -11.5107 -1.04004 -17.2588 -1.62793c-35.1904 -3.59375 -68.1162 -7.56836 -94.5674 -11.084zM324.37 223.711c-1.77344 -6.8877 -3.48242 -13.7852 -5.23145 -20.6768
c39.8311 2.39648 79.7051 4.04883 119.601 4.93555c-16.9131 79.3066 -34.208 158.503 -54.6221 236.873c-20.7383 -73.4805 -40.7002 -147.182 -59.7471 -221.132z" />
    <glyph glyph-name="B" unicode="B" horiz-adv-x="745" 
d="M0.438477 575.513c-25.1123 14.7129 -3.7002 39.2764 14.8018 47.9561c86.9785 40.7793 179.694 69.4844 274.996 82.3701c85.4219 11.5498 174.985 15.9766 259.901 -1.63867c37.2637 -7.72852 76.9238 -22.5586 104.657 -49.5225
c28.2031 -27.4229 26.9707 -66.9658 9.46582 -99.7168c-36.8076 -68.8643 -105.985 -119.929 -168.695 -163.799c-36.7832 -25.7314 -74.6807 -49.7754 -113.049 -73.0674c2.09766 0.177734 4.19531 0.384766 6.29688 0.544922
c44.2871 3.42285 89.418 4.20996 133.612 -0.776367c41.5088 -4.68652 81.2832 -14.2744 119.818 -30.3975c31.3838 -13.1348 65.2891 -32.8975 84.3965 -61.9453c46.0928 -70.0645 -2.375 -147.092 -51.5586 -199.595
c-107.226 -114.459 -235.927 -205.522 -364.574 -294.011c-26.4189 -18.1709 -62.71 -26.1309 -94.0938 -18.2881c-9.13184 2.2793 -21.918 8.71094 -23.9697 19.2637c-1.41016 7.26172 2.72461 14.8408 7.95312 20.582c-24.8877 19.1035 -23.5342 55.9043 -27.1172 84.9551
c-4.53711 36.8076 -8.30469 73.7041 -11.4277 110.658c-6.05469 71.6104 -9.6377 143.406 -10.7705 215.263c-2.31152 146.793 5.5918 293.704 23.3389 439.433c0.5625 4.6084 3.47266 8.75391 7.33008 12.4004c-1.13965 -0.352539 -2.28613 -0.683594 -3.42188 -1.04297
c-16.3789 -5.18945 -32.6016 -10.8945 -48.6172 -17.1133c-3.3584 -1.30371 -6.70996 -2.63965 -10.0508 -3.98926c-1.59863 -0.666016 -4.3877 -1.82031 -4.88965 -2.04102c-7.86719 -3.46191 -15.6953 -7.00195 -23.4805 -10.6416
c-25.2539 -11.8096 -64.793 -21.1084 -90.8525 -5.84082zM402.808 251.002c-8.2627 -0.270508 -16.5225 -0.681641 -24.7783 -1.20898c-15.4248 -0.986328 -30.8213 -2.37207 -46.1895 -4.00684c-16.1367 -1.7168 -32.2773 -3.6084 -48.4287 -4.89453
c-0.0390625 -14.6055 0 -29.2109 0.164062 -43.8203c0.772461 -69.5664 3.77832 -139.122 8.96777 -208.5c2.59668 -34.6963 5.81934 -69.3389 9.41992 -103.942c1.68457 -16.1514 3.54395 -32.2812 5.41406 -48.4111
c0.224609 -1.93066 0.420898 -3.87207 0.613281 -5.81641c32.1426 23.0039 63.9717 46.4385 95.0879 70.8457c53.9492 42.3135 105.911 87.2451 152.666 137.477c21.6787 23.292 43.1367 47.877 52.0762 79.0684c9 31.4014 2.09766 61.5098 -21.8457 83.9688
c-19.7236 18.498 -47.3184 29.7705 -71.8496 36.958c-31.4873 9.22754 -55.5518 11.9844 -90.6504 12.6826c2.1084 -0.0712891 -5.28516 -0.0537109 -8.28027 -0.0996094c-4.13086 -0.0644531 -8.25879 -0.164062 -12.3867 -0.299805zM293.031 640.864
c-3.12012 -0.488281 -6.24121 -0.966797 -9.35352 -1.45508c13.3232 -4.02051 23.833 -12.3584 21.9951 -28.043c-10.1963 -87.0498 -16.9414 -174.452 -20.1396 -262c38.3994 23.0176 75.9512 46.6904 113.653 73.1914c48.9668 34.4248 106.969 74.1748 137.338 127.458
c13.5332 23.748 14.9434 49.8037 -8.56934 67.2305c-11.9492 8.85742 -26.1094 14.7021 -40.1484 18.8369c-15.4639 4.55469 -24.624 6.15039 -37.2285 7.59961c-17.6182 2.02637 -35.3545 2.93457 -53.0801 3.39746
c-0.847656 0.0214844 -1.50293 0.0390625 -2.01562 0.0537109c-3.60742 0.0175781 -7.21484 0.0107422 -10.8223 -0.0283203c-8.58984 -0.0888672 -17.1768 -0.313477 -25.7598 -0.676758c-17.166 -0.722656 -34.3076 -1.9873 -51.3916 -3.78613
c-3.10938 -0.328125 -6.21484 -0.6875 -9.32031 -1.05469c-1.68848 -0.235352 -4.29199 -0.587891 -5.15723 -0.723633z" />
    <glyph glyph-name="C" unicode="C" horiz-adv-x="587" 
d="M74.3154 -248.124c-39.3506 55.6943 -58.2568 125.096 -66.2949 192.016c-8.90723 74.2461 -4.76172 149.984 3.07715 224.138c8.23438 77.8818 22.9502 155.091 43.8809 230.559c19.3389 69.7227 43.0479 138.637 82.3945 199.865
c46.3174 72.0703 125.92 129.759 215.779 120.061c36.2275 -3.91016 69.748 -18.9824 90.9248 -49.543c18.9219 -27.3096 28.5381 -59.9824 34.792 -92.2314c14.6055 -75.3291 10.3955 -152.631 6.24609 -228.75c-1.55957 -28.6094 -35.5498 -39.7812 -59.4541 -44.9736
c-14.6875 -3.19141 -33.6309 -3.81152 -48.3008 0.398438c-6.4502 1.85156 -24.2002 8.98535 -23.6729 19.0283c3.94922 75.0117 7.93066 151.096 -6.05566 225.366c-5.26758 27.9756 -11.8174 57.8633 -28.9512 81.248c-3.54004 4.83301 -8.90332 11.3184 -12.54 14.3779
c-0.203125 0.170898 -0.491211 0.374023 -0.822266 0.594727c-38.2002 -30.2012 -63.957 -83.7227 -82.0137 -128.747c-23.9258 -59.6514 -41.1387 -122.369 -54.9639 -185.062c-27.6865 -125.549 -44.7178 -261.205 -24.0752 -389.115
c8.84277 -54.793 24.6699 -111.502 58.9277 -156.163c14.541 -18.958 31.1553 -34.7461 52.9873 -44.6006c0.983398 -0.384766 3.07031 -1.21777 3.88965 -1.45605c3.11621 -0.901367 6.36426 -1.94824 9.58008 -2.56836
c0.979492 -0.078125 2.31543 -0.173828 4.01465 -0.288086c1.45996 0.103516 2.35059 0.146484 2.77441 0.139648c1.14355 0.220703 2.2832 0.452148 3.42676 0.668945c-2.51758 -0.246094 7.16211 3.01953 9.2207 3.46094c2.69629 1.44629 8.21973 4.28516 8.9707 4.6875
c0.40918 0.220703 3.37207 2.09766 4.54004 2.81348c5.13574 3.46191 10.125 7.14453 14.9795 10.9834c9.88672 7.81348 17.4053 14.7402 25.8818 23.5938c20.1113 21.0127 38.3857 43.8311 54.7578 67.8672c33.3994 49.0273 57.29 103.796 72.9814 160.926
c11.0654 40.2764 135.55 53.1045 124.117 7.17188c-39.543 -158.863 -159.158 -333.668 -335.042 -349.772c-74.207 -6.79492 -142.818 22.249 -185.958 83.3066zM273.624 -263.966c-5.22461 0.291992 -0.00976562 -0.691406 -0.0244141 0h0.0244141zM269.341 -263.652
c-1.97656 0.291992 -3.875 0.30957 0 0zM317.605 652.305c0.449219 0.117188 0.887695 0.243164 1.34375 0.353516c-0.466797 -0.110352 -0.858398 -0.209961 -1.26074 -0.30957c-0.0253906 -0.0146484 -0.0576172 -0.0292969 -0.0830078 -0.0439453z" />
    <glyph glyph-name="D" unicode="D" horiz-adv-x="743" 
d="M25.6699 540.223c-19.2139 1.3252 -50.9287 16.2236 -31.6934 38.9248c46.9434 55.4199 114.572 89.6777 182.162 113.18c71.7314 24.9443 148.577 36.5332 224.443 31.793c107.781 -6.73145 217.357 -54.9756 281.909 -144.069
c69.9121 -96.4912 67.5186 -221.456 29.4785 -330.045c-38.293 -109.312 -104.568 -212.146 -175.182 -303.284c-70.5068 -90.999 -152.73 -173.009 -243.206 -244.142c-24.5352 -19.2891 -64.2744 -25.7031 -94.0166 -18.2734
c-26.7646 6.68848 -29.5391 29.7559 -8.9541 46.0713c10.1572 8.04492 20.1611 16.2432 30.0479 24.5557c-22.7646 9.63379 -31.3545 32.5342 -36.6963 57.0195c-6.78125 31.0771 -11.6318 62.5674 -15.0684 94.1787c-6.95508 63.9678 -8.87109 128.494 -10.0645 192.786
c-2.4502 132.241 2.30469 264.482 13.3809 396.264c0.958008 11.4248 17.8428 20.4424 26.7002 25.3428c15.1865 8.40527 33.3037 11.8779 50.4629 13.21c22.042 1.70996 56.3037 -2.96973 54.0889 -30.9697c-9.57715 -121.051 -13.5664 -242.543 -12.1592 -363.961
c0.694336 -59.9541 2.11523 -120.054 7.06543 -179.822c2.43945 -29.4502 5.74121 -58.8604 10.5566 -88.0215c1.61719 -9.78711 3.44434 -19.542 5.41699 -29.2646c40.5869 41.4023 78.5381 85.5186 113.871 132.451c62.084 82.4658 119.787 173.401 153.909 271.342
c32.6084 93.5986 38.9404 203.616 -19.6602 288.679c-24.5283 35.6045 -56.6211 64.5342 -94.209 85.7432c-39.0518 22.0352 -78.9336 33.3857 -122.818 36.1777c-4.01758 0.256836 -8.0459 0.438477 -12.0703 0.574219
c-6.26465 -0.0429688 -12.5254 -0.242188 -18.7793 -0.577148c-7.33691 -0.391602 -14.6348 -1.16797 -21.957 -1.73047c11.1045 0.854492 -3.71484 -0.523438 -7.43262 -1.12891c-7.27246 -1.18555 -14.5166 -2.56055 -21.7217 -4.0957
c-3.09473 -0.65918 -6.17188 -1.37109 -9.25586 -2.05859c-0.242188 -0.0537109 -2.10156 -0.512695 -3.71875 -0.908203c-1.5918 -0.438477 -3.40137 -0.929688 -3.63965 -1.00098c-3.03125 -0.908203 -6.0625 -1.80176 -9.08301 -2.74512
c-6.03711 -1.88086 -12.0342 -3.87891 -17.9961 -5.99121c-6.1084 -2.16211 -12.1768 -4.44141 -18.1924 -6.84863c-0.213867 -0.170898 -8.35938 -3.68262 -10.0479 -4.46582c-11.7031 -5.41699 -23.2891 -11.2646 -34.3477 -17.9072
c-0.348633 -0.207031 -0.605469 -0.360352 -0.879883 -0.524414c-0.419922 -0.298828 -1.06445 -0.748047 -2.04004 -1.41016c-2.4541 -1.66992 -4.92188 -3.32227 -7.33691 -5.0459c-4.81836 -3.44043 -9.53711 -7.03418 -14.1104 -10.792
c-7.98438 -6.55664 -13.6006 -12.4512 -20.6953 -20.5781c-20.2539 -23.21 -57.1895 -30.6465 -86.4609 -28.6309zM334.325 656.673c1.96191 -0.00390625 4.40234 0.0253906 0 0z" />
    <glyph glyph-name="E" unicode="E" horiz-adv-x="634" 
d="M2.49707 575.413c-25.0938 14.7021 -4.01953 39.9189 14.9307 48.3672c116.025 51.7451 235.075 94.2979 358.128 125.963c61.4492 15.8125 123.893 29.2139 186.92 36.8428c50.0205 6.05469 137.879 13.6016 160.52 -45.0312
c9.74023 -25.2188 -45.1387 -41.7871 -59.3066 -44.8643c-22.127 -4.80762 -61.6484 -6.30371 -71.6992 19.1855c0.0429688 0.131836 -1.59863 5.48145 -0.679688 2.03418c-2.56055 1.30664 -3.77539 2.01855 -3.71875 2.16797
c-0.367188 0.106445 -0.734375 0.220703 -1.10156 0.331055c-0.640625 0.181641 -1.13574 0.334961 -1.60547 0.484375c-0.573242 -0.0390625 -1.25391 -0.0742188 -2.14062 -0.0957031c-21.6074 -0.501953 11.4648 1.21094 -10.1279 0.0253906
c-6.61035 -0.363281 -13.1885 -0.882812 -19.7842 -1.42383c-0.958008 -0.0996094 -1.91992 -0.206055 -2.87793 -0.30957c-0.548828 -0.0820312 -1.36133 -0.203125 -2.4834 -0.359375c-11.9561 -2.21484 -24.0332 -3.87793 -36 -6.05762
c-26.1807 -4.76855 -52.251 -10.1572 -78.1855 -16.123c-11.8887 -2.73145 -23.7451 -5.59082 -35.5732 -8.56445c-4.1709 -1.05078 -8.33398 -2.12305 -12.4971 -3.20215c-2.1084 -0.59082 -10.5459 -2.86621 -12.1162 -3.30078
c-14.5488 -4.02441 -29.0293 -8.27344 -43.4746 -12.6396c5.37109 -4.93262 7.75 -11.5889 5.69531 -20.1475c-21.8105 -90.8145 -37.9863 -182.91 -47.6875 -275.814c-5.62402 -53.8535 -9.97949 -109.384 -10.5527 -165.021
c60.5381 13.6904 121.646 24.8916 182.871 33.7988c17.5479 2.55371 66.2402 7.89551 71.5254 -19.3037c5.0791 -26.1162 -40.3154 -42.0146 -59.084 -44.6924c-57.0693 -8.1416 -113.804 -18.3486 -170.075 -30.8779c-8.42285 -1.87695 -16.3398 -3.68652 -23.9473 -5.4668
c4.08105 -78.8506 17.8965 -156.651 48.8242 -228.864c12.5537 -29.3105 28.8477 -57.1719 49.6963 -81.3896c19.2422 -22.3516 46.0703 -42.3242 69.7969 -48.8418c1.2998 -0.359375 7.82812 -1.78418 8.52246 -2.05859
c4.34863 -0.620117 8.78223 -0.94043 13.1523 -1.11523c0.851562 -0.0351562 1.45703 -0.0810547 1.89844 -0.130859c0.912109 0.15332 1.99805 0.324219 3.34082 0.523438c0.932617 0.138672 3.15137 0.487305 4.7041 0.714844
c6.41406 1.52832 16.7637 4.2207 11.1826 2.31543c4.21289 1.37109 8.40137 2.78125 12.5576 4.33008c0.380859 0.142578 0.655273 0.242188 0.958008 0.352539c0.380859 0.185547 0.836914 0.402344 1.39648 0.666016c31.9502 15.0225 57.2939 35.041 85.458 60.6016
c20.585 18.6768 62.625 24.4893 88.3389 17.1709c8.60059 -2.4502 20.5312 -7.95312 22.501 -18.0889c2.08008 -10.709 -7.27637 -18.9717 -14.0898 -25.1973c-82.9434 -75.8027 -193.303 -127.323 -307.715 -105.787c-167.935 31.6084 -221.763 239.328 -232.013 384.437
c-0.106445 1.50977 -0.181641 3.02344 -0.28125 4.5332c-0.317383 -0.0927734 -0.613281 -0.181641 -0.930664 -0.274414c-21.8496 -6.49219 -66.332 -15.4385 -83.8613 6.6709c-17.5264 22.1064 21.3438 42.5742 37.5947 47.7666
c14.8906 4.75781 29.8486 9.3418 44.8643 13.7578c-0.306641 65.1963 4.51172 130.585 11.2354 195.215c8.96094 86.1523 23.6553 171.606 43.7031 255.856c-14.5342 -5.49219 -29.0254 -11.0947 -43.4385 -16.9004c-21.3867 -8.61914 -35.9814 -14.8691 -61.6094 -26.2764
c-25.8809 -11.5176 -65.0039 -21.5078 -91.6582 -5.89062z" />
    <glyph glyph-name="E" unicode="&#xcb;" horiz-adv-x="634" 
d="M2.49707 575.413c-25.0938 14.7021 -4.01953 39.9189 14.9307 48.3672c116.025 51.7451 235.075 94.2979 358.128 125.963c61.4492 15.8125 123.893 29.2139 186.92 36.8428c50.0205 6.05469 137.879 13.6016 160.52 -45.0312
c9.74023 -25.2188 -45.1387 -41.7871 -59.3066 -44.8643c-22.127 -4.80762 -61.6484 -6.30371 -71.6992 19.1855c0.0429688 0.131836 -1.59863 5.48145 -0.679688 2.03418c-2.56055 1.30664 -3.77539 2.01855 -3.71875 2.16797
c-0.367188 0.106445 -0.734375 0.220703 -1.10156 0.331055c-0.640625 0.181641 -1.13574 0.334961 -1.60547 0.484375c-0.573242 -0.0390625 -1.25391 -0.0742188 -2.14062 -0.0957031c-21.6074 -0.501953 11.4648 1.21094 -10.1279 0.0253906
c-6.61035 -0.363281 -13.1885 -0.882812 -19.7842 -1.42383c-0.958008 -0.0996094 -1.91992 -0.206055 -2.87793 -0.30957c-0.548828 -0.0820312 -1.36133 -0.203125 -2.4834 -0.359375c-11.9561 -2.21484 -24.0332 -3.87793 -36 -6.05762
c-26.1807 -4.76855 -52.251 -10.1572 -78.1855 -16.123c-11.8887 -2.73145 -23.7451 -5.59082 -35.5732 -8.56445c-4.1709 -1.05078 -8.33398 -2.12305 -12.4971 -3.20215c-2.1084 -0.59082 -10.5459 -2.86621 -12.1162 -3.30078
c-14.5488 -4.02441 -29.0293 -8.27344 -43.4746 -12.6396c5.37109 -4.93262 7.75 -11.5889 5.69531 -20.1475c-21.8105 -90.8145 -37.9863 -182.91 -47.6875 -275.814c-5.62402 -53.8535 -9.97949 -109.384 -10.5527 -165.021
c60.5381 13.6904 121.646 24.8916 182.871 33.7988c17.5479 2.55371 66.2402 7.89551 71.5254 -19.3037c5.0791 -26.1162 -40.3154 -42.0146 -59.084 -44.6924c-57.0693 -8.1416 -113.804 -18.3486 -170.075 -30.8779c-8.42285 -1.87695 -16.3398 -3.68652 -23.9473 -5.4668
c4.08105 -78.8506 17.8965 -156.651 48.8242 -228.864c12.5537 -29.3105 28.8477 -57.1719 49.6963 -81.3896c19.2422 -22.3516 46.0703 -42.3242 69.7969 -48.8418c1.2998 -0.359375 7.82812 -1.78418 8.52246 -2.05859
c4.34863 -0.620117 8.78223 -0.94043 13.1523 -1.11523c0.851562 -0.0351562 1.45703 -0.0810547 1.89844 -0.130859c0.912109 0.15332 1.99805 0.324219 3.34082 0.523438c0.932617 0.138672 3.15137 0.487305 4.7041 0.714844
c6.41406 1.52832 16.7637 4.2207 11.1826 2.31543c4.21289 1.37109 8.40137 2.78125 12.5576 4.33008c0.380859 0.142578 0.655273 0.242188 0.958008 0.352539c0.380859 0.185547 0.836914 0.402344 1.39648 0.666016c31.9502 15.0225 57.2939 35.041 85.458 60.6016
c20.585 18.6768 62.625 24.4893 88.3389 17.1709c8.60059 -2.4502 20.5312 -7.95312 22.501 -18.0889c2.08008 -10.709 -7.27637 -18.9717 -14.0898 -25.1973c-82.9434 -75.8027 -193.303 -127.323 -307.715 -105.787c-167.935 31.6084 -221.763 239.328 -232.013 384.437
c-0.106445 1.50977 -0.181641 3.02344 -0.28125 4.5332c-0.317383 -0.0927734 -0.613281 -0.181641 -0.930664 -0.274414c-21.8496 -6.49219 -66.332 -15.4385 -83.8613 6.6709c-17.5264 22.1064 21.3438 42.5742 37.5947 47.7666
c14.8906 4.75781 29.8486 9.3418 44.8643 13.7578c-0.306641 65.1963 4.51172 130.585 11.2354 195.215c8.96094 86.1523 23.6553 171.606 43.7031 255.856c-14.5342 -5.49219 -29.0254 -11.0947 -43.4385 -16.9004c-21.3867 -8.61914 -35.9814 -14.8691 -61.6094 -26.2764
c-25.8809 -11.5176 -65.0039 -21.5078 -91.6582 -5.89062z" />
    <glyph glyph-name="E" unicode="&#xca;" horiz-adv-x="634" 
d="M2.49707 575.413c-25.0938 14.7021 -4.01953 39.9189 14.9307 48.3672c116.025 51.7451 235.075 94.2979 358.128 125.963c61.4492 15.8125 123.893 29.2139 186.92 36.8428c50.0205 6.05469 137.879 13.6016 160.52 -45.0312
c9.74023 -25.2188 -45.1387 -41.7871 -59.3066 -44.8643c-22.127 -4.80762 -61.6484 -6.30371 -71.6992 19.1855c0.0429688 0.131836 -1.59863 5.48145 -0.679688 2.03418c-2.56055 1.30664 -3.77539 2.01855 -3.71875 2.16797
c-0.367188 0.106445 -0.734375 0.220703 -1.10156 0.331055c-0.640625 0.181641 -1.13574 0.334961 -1.60547 0.484375c-0.573242 -0.0390625 -1.25391 -0.0742188 -2.14062 -0.0957031c-21.6074 -0.501953 11.4648 1.21094 -10.1279 0.0253906
c-6.61035 -0.363281 -13.1885 -0.882812 -19.7842 -1.42383c-0.958008 -0.0996094 -1.91992 -0.206055 -2.87793 -0.30957c-0.548828 -0.0820312 -1.36133 -0.203125 -2.4834 -0.359375c-11.9561 -2.21484 -24.0332 -3.87793 -36 -6.05762
c-26.1807 -4.76855 -52.251 -10.1572 -78.1855 -16.123c-11.8887 -2.73145 -23.7451 -5.59082 -35.5732 -8.56445c-4.1709 -1.05078 -8.33398 -2.12305 -12.4971 -3.20215c-2.1084 -0.59082 -10.5459 -2.86621 -12.1162 -3.30078
c-14.5488 -4.02441 -29.0293 -8.27344 -43.4746 -12.6396c5.37109 -4.93262 7.75 -11.5889 5.69531 -20.1475c-21.8105 -90.8145 -37.9863 -182.91 -47.6875 -275.814c-5.62402 -53.8535 -9.97949 -109.384 -10.5527 -165.021
c60.5381 13.6904 121.646 24.8916 182.871 33.7988c17.5479 2.55371 66.2402 7.89551 71.5254 -19.3037c5.0791 -26.1162 -40.3154 -42.0146 -59.084 -44.6924c-57.0693 -8.1416 -113.804 -18.3486 -170.075 -30.8779c-8.42285 -1.87695 -16.3398 -3.68652 -23.9473 -5.4668
c4.08105 -78.8506 17.8965 -156.651 48.8242 -228.864c12.5537 -29.3105 28.8477 -57.1719 49.6963 -81.3896c19.2422 -22.3516 46.0703 -42.3242 69.7969 -48.8418c1.2998 -0.359375 7.82812 -1.78418 8.52246 -2.05859
c4.34863 -0.620117 8.78223 -0.94043 13.1523 -1.11523c0.851562 -0.0351562 1.45703 -0.0810547 1.89844 -0.130859c0.912109 0.15332 1.99805 0.324219 3.34082 0.523438c0.932617 0.138672 3.15137 0.487305 4.7041 0.714844
c6.41406 1.52832 16.7637 4.2207 11.1826 2.31543c4.21289 1.37109 8.40137 2.78125 12.5576 4.33008c0.380859 0.142578 0.655273 0.242188 0.958008 0.352539c0.380859 0.185547 0.836914 0.402344 1.39648 0.666016c31.9502 15.0225 57.2939 35.041 85.458 60.6016
c20.585 18.6768 62.625 24.4893 88.3389 17.1709c8.60059 -2.4502 20.5312 -7.95312 22.501 -18.0889c2.08008 -10.709 -7.27637 -18.9717 -14.0898 -25.1973c-82.9434 -75.8027 -193.303 -127.323 -307.715 -105.787c-167.935 31.6084 -221.763 239.328 -232.013 384.437
c-0.106445 1.50977 -0.181641 3.02344 -0.28125 4.5332c-0.317383 -0.0927734 -0.613281 -0.181641 -0.930664 -0.274414c-21.8496 -6.49219 -66.332 -15.4385 -83.8613 6.6709c-17.5264 22.1064 21.3438 42.5742 37.5947 47.7666
c14.8906 4.75781 29.8486 9.3418 44.8643 13.7578c-0.306641 65.1963 4.51172 130.585 11.2354 195.215c8.96094 86.1523 23.6553 171.606 43.7031 255.856c-14.5342 -5.49219 -29.0254 -11.0947 -43.4385 -16.9004c-21.3867 -8.61914 -35.9814 -14.8691 -61.6094 -26.2764
c-25.8809 -11.5176 -65.0039 -21.5078 -91.6582 -5.89062z" />
    <glyph glyph-name="E" unicode="&#xc9;" horiz-adv-x="634" 
d="M2.49707 575.413c-25.0938 14.7021 -4.01953 39.9189 14.9307 48.3672c116.025 51.7451 235.075 94.2979 358.128 125.963c61.4492 15.8125 123.893 29.2139 186.92 36.8428c50.0205 6.05469 137.879 13.6016 160.52 -45.0312
c9.74023 -25.2188 -45.1387 -41.7871 -59.3066 -44.8643c-22.127 -4.80762 -61.6484 -6.30371 -71.6992 19.1855c0.0429688 0.131836 -1.59863 5.48145 -0.679688 2.03418c-2.56055 1.30664 -3.77539 2.01855 -3.71875 2.16797
c-0.367188 0.106445 -0.734375 0.220703 -1.10156 0.331055c-0.640625 0.181641 -1.13574 0.334961 -1.60547 0.484375c-0.573242 -0.0390625 -1.25391 -0.0742188 -2.14062 -0.0957031c-21.6074 -0.501953 11.4648 1.21094 -10.1279 0.0253906
c-6.61035 -0.363281 -13.1885 -0.882812 -19.7842 -1.42383c-0.958008 -0.0996094 -1.91992 -0.206055 -2.87793 -0.30957c-0.548828 -0.0820312 -1.36133 -0.203125 -2.4834 -0.359375c-11.9561 -2.21484 -24.0332 -3.87793 -36 -6.05762
c-26.1807 -4.76855 -52.251 -10.1572 -78.1855 -16.123c-11.8887 -2.73145 -23.7451 -5.59082 -35.5732 -8.56445c-4.1709 -1.05078 -8.33398 -2.12305 -12.4971 -3.20215c-2.1084 -0.59082 -10.5459 -2.86621 -12.1162 -3.30078
c-14.5488 -4.02441 -29.0293 -8.27344 -43.4746 -12.6396c5.37109 -4.93262 7.75 -11.5889 5.69531 -20.1475c-21.8105 -90.8145 -37.9863 -182.91 -47.6875 -275.814c-5.62402 -53.8535 -9.97949 -109.384 -10.5527 -165.021
c60.5381 13.6904 121.646 24.8916 182.871 33.7988c17.5479 2.55371 66.2402 7.89551 71.5254 -19.3037c5.0791 -26.1162 -40.3154 -42.0146 -59.084 -44.6924c-57.0693 -8.1416 -113.804 -18.3486 -170.075 -30.8779c-8.42285 -1.87695 -16.3398 -3.68652 -23.9473 -5.4668
c4.08105 -78.8506 17.8965 -156.651 48.8242 -228.864c12.5537 -29.3105 28.8477 -57.1719 49.6963 -81.3896c19.2422 -22.3516 46.0703 -42.3242 69.7969 -48.8418c1.2998 -0.359375 7.82812 -1.78418 8.52246 -2.05859
c4.34863 -0.620117 8.78223 -0.94043 13.1523 -1.11523c0.851562 -0.0351562 1.45703 -0.0810547 1.89844 -0.130859c0.912109 0.15332 1.99805 0.324219 3.34082 0.523438c0.932617 0.138672 3.15137 0.487305 4.7041 0.714844
c6.41406 1.52832 16.7637 4.2207 11.1826 2.31543c4.21289 1.37109 8.40137 2.78125 12.5576 4.33008c0.380859 0.142578 0.655273 0.242188 0.958008 0.352539c0.380859 0.185547 0.836914 0.402344 1.39648 0.666016c31.9502 15.0225 57.2939 35.041 85.458 60.6016
c20.585 18.6768 62.625 24.4893 88.3389 17.1709c8.60059 -2.4502 20.5312 -7.95312 22.501 -18.0889c2.08008 -10.709 -7.27637 -18.9717 -14.0898 -25.1973c-82.9434 -75.8027 -193.303 -127.323 -307.715 -105.787c-167.935 31.6084 -221.763 239.328 -232.013 384.437
c-0.106445 1.50977 -0.181641 3.02344 -0.28125 4.5332c-0.317383 -0.0927734 -0.613281 -0.181641 -0.930664 -0.274414c-21.8496 -6.49219 -66.332 -15.4385 -83.8613 6.6709c-17.5264 22.1064 21.3438 42.5742 37.5947 47.7666
c14.8906 4.75781 29.8486 9.3418 44.8643 13.7578c-0.306641 65.1963 4.51172 130.585 11.2354 195.215c8.96094 86.1523 23.6553 171.606 43.7031 255.856c-14.5342 -5.49219 -29.0254 -11.0947 -43.4385 -16.9004c-21.3867 -8.61914 -35.9814 -14.8691 -61.6094 -26.2764
c-25.8809 -11.5176 -65.0039 -21.5078 -91.6582 -5.89062z" />
    <glyph glyph-name="F" unicode="F" horiz-adv-x="605" 
d="M-5.49219 591.59c-17.7607 22.3984 21.6729 40.4395 36.8018 46.7578c62.0518 25.9023 125.724 48.2686 189.812 68.5615c115.744 36.6475 234.027 66.0938 353.575 87.3164c62.2471 11.0508 125.253 20.7734 188.487 23.416
c60.0176 2.51074 136.29 7.10547 184.338 -35.4502c19.5986 -17.3555 -18.417 -39.8994 -30.3193 -44.875c-21.333 -8.91797 -62.5361 -18.4697 -83.6738 -2.74609c-2.7959 2.07617 -13.4736 9.31348 -13.0391 9.12109c-3.56152 1.25684 -7.18359 2.31836 -10.8594 3.19141
c-6.53516 1.44238 -7.44727 1.62012 -2.73145 0.537109c-7.95996 1.04688 -16.0195 1.4707 -24.0332 1.85156c-4.44434 0.207031 -8.89258 0.363281 -13.3408 0.473633c-1.18262 0 -2.79199 -0.00390625 -4.92578 -0.00390625
c-18.4199 -0.224609 -36.8115 -1.00781 -55.1816 -2.4502c-6.8916 -0.541016 -13.7793 -1.16406 -20.6602 -1.84766c-1.9375 -0.192383 -19.4746 -2.18652 -19.3789 -2.10449c-68.6543 -8.72559 -136.971 -22.2734 -204.457 -37.4385
c-17.5293 -3.93945 -35.0127 -8.05664 -52.457 -12.3486c-8.72168 -2.14355 -17.4189 -4.38379 -26.1299 -6.57031c-2.39355 -0.598633 -3.72949 -0.929688 -4.44531 -1.10059c-0.901367 -0.249023 -2.31543 -0.633789 -4.63379 -1.25684
c-8.46191 -2.27539 -16.9131 -4.59375 -25.3574 -6.94434c-6.57422 -62.5752 -11.8418 -125.275 -15.168 -188.114c-2.38281 -44.9854 -3.81445 -90.0312 -4.27344 -135.084c64.3594 14.9473 129.146 28.0361 194.271 39.0586
c17.4268 2.94922 66.1299 7.58984 71.3477 -19.2568c5.13184 -26.4014 -40.2773 -41.3916 -58.9355 -44.583c-71.8848 -12.2871 -139.916 -26.0342 -206.565 -41.8115c0.601562 -49.6504 2.38965 -99.2871 5.62695 -148.834
c3.76758 -57.7031 9.4375 -115.289 17.0449 -172.611c6.4209 -48.3613 8.95312 -106.37 35.9453 -148.605c27.5264 -43.0723 -99.5645 -77.3369 -123.355 -41.7363c-34.5645 51.7236 -39.1338 118.277 -47.1475 178.303c-13.2168 99.0127 -20.1475 198.73 -21.8174 298.583
c-18.334 -5.23535 -36.6865 -10.6348 -55.1133 -16.2617c-21.7744 -6.64551 -66.4678 -15.3496 -83.9336 6.67773c-17.4512 22.0098 21.2588 42.7979 37.627 47.8057c33.542 10.2607 67.2441 20.0371 101.082 29.3252c0.694336 105.334 6.99121 210.675 17.7393 315.364
c-46.915 -15.9238 -93.3604 -33.1113 -139.674 -50.8369c-20.4141 -7.81348 -65.7266 -14.1104 -82.0918 6.52832z" />
    <glyph glyph-name="G" unicode="G" horiz-adv-x="793" 
d="M68.2393 389.198c63.8037 130.656 165.52 255.655 298.989 319.21c79.2959 37.7588 178.586 63.4443 263.046 28.1465c71.2363 -29.7705 106.78 -103.668 90.9639 -178.221c-8.58984 -40.4971 -133.106 -54.0771 -123.629 -7.14453
c7.17285 35.5117 -3.44434 72.957 -27.5195 99.8926c-10.3818 11.6143 -22.4727 20.5283 -36.6973 26.9746c-4.64746 2.10449 -9.80469 4.02051 -17.8105 5.35254c2.57812 -0.516602 -5.33887 0.0537109 -5.86914 0.310547
c-2.85254 -0.12793 -5.71973 -0.387695 -8.5293 -0.523438c9.76953 0.469727 0.819336 0.202148 -4.19141 -0.712891c-4.16016 -0.761719 -8.2666 -1.83691 -12.4189 -2.58887c-0.313477 -0.0566406 -0.523438 -0.0888672 -0.769531 -0.12793
c-0.523438 -0.185547 -1.13574 -0.395508 -1.86621 -0.641602c-4.41602 -1.48828 -8.88965 -2.79492 -13.2988 -4.32324c-2.90625 -1.00781 -5.77637 -2.10449 -8.6543 -3.1875c-1.23535 -0.40918 -3.32617 -1.15039 -4.4375 -1.63086
c-0.00390625 -0.00390625 -0.00390625 -0.00390625 -0.0078125 -0.00390625h0.00390625c-0.0673828 -0.0283203 -0.145508 -0.0605469 -0.206055 -0.0888672c-8.44824 -3.86035 -16.8066 -7.86719 -25.0049 -12.2402c-4.92578 -2.62793 -9.74805 -5.42383 -14.5918 -8.19141
c-0.488281 -0.277344 -2.05859 -1.26074 -3.28711 -2.03027c-6.56738 -4.23828 -13.0283 -8.64355 -19.3711 -13.2129c-14.4775 -10.4316 -28.374 -21.6719 -41.6904 -33.5527c-19.4746 -17.376 -42.0547 -41.9463 -60.9766 -65.085
c-21.333 -26.084 -40.9785 -53.5605 -58.7432 -82.1982c-35.3975 -57.0654 -62.1045 -120.179 -78.7256 -185.229c-16.75 -65.5635 -22.0605 -132.922 -13.3955 -200.138c7.26855 -56.3779 25.6211 -134.068 77.8643 -162.286
c1.70996 -0.484375 3.42285 -0.964844 5.13281 -1.44922c0.246094 -0.0253906 0.50293 -0.0507812 0.788086 -0.0791016c0.626953 0.131836 1.25 0.263672 1.87305 0.395508c-0.078125 -0.0458984 -0.142578 -0.0888672 -0.213867 -0.134766
c0.0644531 0.0429688 0.150391 0.0966797 0.217773 0.139648c0.181641 0.0390625 0.363281 0.078125 0.548828 0.117188c3.51855 2.04395 9.60156 5.71191 5.20312 3.11523c6.78418 4.00293 13.124 8.94238 19.3105 13.8076c25.1191 19.7588 46.6406 42.627 68.5791 67.1406
c46.6201 52.0898 87.417 109.056 125.771 167.41c33.8086 51.4385 65.8867 103.98 98.873 155.946c-2.19434 -0.509766 -4.39844 -0.990234 -6.58887 -1.51758c-2.18359 -0.523438 -7.70703 -1.90527 -8.97461 -2.19727
c-3.3125 -0.901367 -6.62793 -1.81348 -9.92969 -2.75684c-10.791 -3.08789 -21.5039 -6.4248 -32.1816 -9.88965c-21.4619 -6.96973 -66.376 -15.0547 -83.5811 6.64551c-17.4971 22.0674 21.3086 42.3604 37.4668 47.6025c50.085 16.2471 101.402 28.7588 153.364 37.2168
c11.582 13.79 25.3076 25.2646 43.4678 31.875c16.668 14.7051 44.7002 20.1973 63.8398 21.6826c15.7842 1.22559 62.3613 -3.48242 52.7734 -30.2148c-1.29297 -3.60742 -2.42871 -7.26465 -3.50098 -10.9473c19.3955 -1.22168 48.4961 -6.92676 41.7725 -29.8447
c-5.49512 -18.7334 -29.8877 -29.8135 -51.8125 -34.6426c-1.33887 -22.1484 -1.32129 -44.4434 -1.96582 -65.8906c-1.52441 -50.8574 -1.29688 -101.769 0.705078 -152.608c4.00684 -101.755 15.1182 -203.079 32.5654 -303.396
c4.7793 -27.498 -41.0459 -41.1211 -59.7295 -45.1816c-18.4199 -4.00293 -67.54 -7.28613 -72.3018 19.5137c-18.2168 102.542 -29.0967 206.312 -32.4053 310.411c-1.18945 37.4102 -1.39648 74.8486 -0.6875 112.269
c-8.11621 -13.0176 -16.2725 -26.0137 -24.5488 -38.9307c-44.7432 -69.8369 -92.1748 -138.363 -148.111 -199.799c-61.2578 -67.2803 -128.848 -125.745 -222.96 -135.98c-45.0879 -4.9043 -91.501 3.15137 -127.023 32.5723
c-28.1211 23.2881 -45.2627 57.6172 -57.7061 91.3408c-50.7832 137.633 -19.8838 301.382 42.7949 429.73zM223.794 -96.3252c-2.17969 -0.380859 -3.0127 -0.975586 -0.740234 -0.484375c0.216797 0.142578 0.480469 0.313477 0.740234 0.484375zM223.815 -96.3213
c-0.395508 -0.274414 -0.263672 -0.224609 0.206055 0.0322266c-0.0712891 -0.0107422 -0.138672 -0.0214844 -0.206055 -0.0322266zM225.215 -96.1396c-0.138672 -0.078125 -0.282227 -0.15625 -0.428711 -0.238281c0.302734 0.0820312 0.626953 0.174805 0.983398 0.27832
c-0.188477 -0.0146484 -0.376953 -0.0253906 -0.554688 -0.0400391zM225.891 -96.0645c0.438477 0.12793 0.912109 0.270508 1.43555 0.430664c-0.495117 -0.0498047 -0.986328 -0.0996094 -1.47754 -0.149414c-0.131836 -0.0751953 -0.27832 -0.157227 -0.420898 -0.235352
c0.164062 -0.0175781 0.291992 -0.0283203 0.462891 -0.0458984z" />
    <glyph glyph-name="H" unicode="H" horiz-adv-x="833" 
d="M-17.998 191.266c0.30957 22.8398 39.1123 36.7119 57.0439 39.0625c46.5557 6.08301 92.4697 15.7842 138.182 26.6289c-0.28125 29.4141 -0.413086 58.8105 -0.488281 88.1572c-0.317383 127.811 2.65332 255.636 9.75098 383.254
c1.60254 28.8018 35.7607 40.0381 59.8506 45.2734c14.7871 3.21289 33.8555 3.83594 48.6211 -0.402344c6.55273 -1.88086 24.2998 -9.02539 23.8301 -19.1543c-3.29102 -70.8877 -5.86914 -141.811 -7.43652 -212.759
c-1.85156 -83.8906 -2.1582 -167.799 -1.06445 -251.696c23.3457 5.53125 46.7412 10.7705 70.2539 15.3652c89.7598 17.5293 180.503 30.71 271.595 39.5713c0.912109 28.9551 2.05176 57.8779 3.35156 86.7363c6.65625 147.965 18.498 295.744 32.6299 443.171
c1.10449 11.5215 17.8252 20.4717 26.7998 25.4365c15.2471 8.4375 33.4287 11.9238 50.6523 13.2598c22.0811 1.71289 56.5664 -2.97754 54.2871 -31.085c-6.51367 -80.3789 -13.6084 -160.715 -19.4639 -241.147c-7.17676 -98.5674 -12.6436 -197.302 -15.0371 -296.107
c8.72949 -4.60547 14.2178 -11.8496 10.9482 -22.9971c-1.97656 -6.73438 -6.18262 -12.3506 -11.749 -17.0088c-0.466797 -30.4648 -0.683594 -60.9336 -0.466797 -91.4092c0.499023 -70.457 2.41504 -141.092 9.16406 -211.257
c3.39453 -35.2871 8.09961 -70.4854 14.5068 -105.359c3.09863 -16.8564 6.60352 -33.6631 10.4424 -50.3662c2.85254 -12.4229 5.19238 -23.9268 13.7363 -33.6562c18.7617 -21.3721 -22.583 -41.6123 -36.8965 -46.8799
c-24.0723 -8.85352 -62.2871 -13.0166 -82.3066 6.54688c-25.9883 25.4004 -30.7754 71.6143 -37.3604 105.608c-7.61133 39.3047 -12.665 79.0723 -16.2588 118.933c-8.42285 93.417 -10.1572 187.61 -8.5791 281.651
c-6.30371 -0.573242 -12.6113 -1.0752 -18.9111 -1.69141c-14.8945 -1.45996 -29.7744 -3.04883 -44.6396 -4.75488c-7.04492 -0.811523 -14.0898 -1.65234 -21.127 -2.51758c-1.94824 -0.263672 -12.1914 -1.57031 -12.8789 -1.66309
c-57.0439 -7.63574 -113.853 -17.0664 -170.312 -28.2422c-23.8193 -4.71582 -47.5459 -10.1475 -71.2402 -15.874c0.430664 -19.6094 0.908203 -39.2148 1.48828 -58.8203c1.83105 -61.6602 3.66211 -123.473 9.18262 -184.933
c4.53027 -50.4482 6.56738 -112.643 36.3916 -155.69c28.7197 -41.4521 -98.8945 -77.5938 -123.765 -41.876c-36.8789 52.9697 -40.9141 123.326 -46.0605 185.642c-6.1084 73.9785 -9.04297 148.392 -10.4922 222.805
c-47.624 -11.0693 -95.5156 -20.4785 -144.119 -25.0195c-16.7998 -1.57031 -52.3721 1.85938 -52.0547 25.2656z" />
    <glyph glyph-name="I" unicode="I" horiz-adv-x="423" 
d="M-4.50977 660.55c-25.8242 15.1328 -2.42383 37.7471 14.6357 47.4414c140.729 80.0049 307.526 122.333 469.011 124.688c15.9336 0.231445 61.2285 -2.27539 52.9941 -30.3438c-7.74609 -26.4121 -52.1152 -37.2783 -75.6064 -37.7734
c-18.0312 -0.37793 -36.0449 -1.12891 -54.0303 -2.48535c-9.5166 -0.719727 -19.0186 -1.58203 -28.5059 -2.61133c-3.29102 -0.356445 -6.58203 -0.741211 -9.86914 -1.13672c-0.986328 -0.142578 -2.48242 -0.356445 -4.16309 -0.609375
c-12.9531 -1.94824 -25.874 -4.0459 -38.749 -6.43945c0.0537109 -67.8643 0.0253906 -135.729 0.381836 -203.593c0.6875 -130.827 2.99902 -261.693 9.64453 -392.367c3.32324 -65.2852 7.75 -130.524 13.5234 -195.639
c2.88867 -32.5732 6.20801 -65.1006 9.75195 -97.6064c1.62012 -14.8652 2.56055 -31.0596 6.29688 -46.1494c40.5576 11.0801 81.6748 19.5488 123.864 23.0352c16.1045 1.33203 60.8008 -3.0166 52.8164 -30.2402c-8.06348 -27.4873 -51.6377 -35.3828 -75.3535 -37.6475
c-4.42383 -0.480469 -6.42188 -0.666016 -6.16504 -0.583984c-2.47559 -0.352539 -4.95117 -0.6875 -7.41895 -1.0791c-6.16504 -0.979492 -12.3047 -2.09375 -18.4229 -3.31543s-12.2188 -2.55762 -18.2949 -3.98242
c-0.722656 -0.170898 -11.1543 -2.8916 -11.7852 -2.98047c-23.666 -6.65332 -47.0508 -14.2178 -70.3818 -21.9531c-54.2695 -17.9922 -108.849 -36.0137 -165.326 -45.7432c-17.3906 -2.99902 -66.0508 -7.54395 -71.2539 19.2314
c-5.12891 26.3867 40.2334 41.3125 58.8633 44.5254c12.8428 2.21484 25.5498 4.90039 38.2178 7.89551c0.925781 0.277344 10.0361 2.58203 11.917 3.11621c7.05566 2.00879 14.0859 4.11719 21.0986 6.27539c3.82129 1.1748 7.62891 2.40332 11.4434 3.61426
c-7.38672 20.1797 -9.91895 41.9121 -12.5977 63.7939c-4.53711 37.0605 -8.30176 74.2246 -11.6963 111.406c-23.1318 253.292 -23.873 508.126 -22.8789 762.309c-5.33496 -2.00879 -10.6562 -4.0459 -15.9482 -6.14355
c-0.644531 -0.25293 -5.15332 -2.07617 -7.24414 -2.90918c-1.99805 -0.862305 -6.66016 -2.85352 -7.31152 -3.13867c-8.75781 -3.83203 -17.4512 -7.7998 -26.0811 -11.9131c-15.3682 -7.32227 -30.4229 -15.2285 -45.4805 -23.167
c-23.9512 -12.6289 -65.0146 -20.3574 -89.8955 -5.78027z" />
    <glyph glyph-name="I" unicode="&#xcf;" horiz-adv-x="423" 
d="M-4.50977 660.55c-25.8242 15.1328 -2.42383 37.7471 14.6357 47.4414c140.729 80.0049 307.526 122.333 469.011 124.688c15.9336 0.231445 61.2285 -2.27539 52.9941 -30.3438c-7.74609 -26.4121 -52.1152 -37.2783 -75.6064 -37.7734
c-18.0312 -0.37793 -36.0449 -1.12891 -54.0303 -2.48535c-9.5166 -0.719727 -19.0186 -1.58203 -28.5059 -2.61133c-3.29102 -0.356445 -6.58203 -0.741211 -9.86914 -1.13672c-0.986328 -0.142578 -2.48242 -0.356445 -4.16309 -0.609375
c-12.9531 -1.94824 -25.874 -4.0459 -38.749 -6.43945c0.0537109 -67.8643 0.0253906 -135.729 0.381836 -203.593c0.6875 -130.827 2.99902 -261.693 9.64453 -392.367c3.32324 -65.2852 7.75 -130.524 13.5234 -195.639
c2.88867 -32.5732 6.20801 -65.1006 9.75195 -97.6064c1.62012 -14.8652 2.56055 -31.0596 6.29688 -46.1494c40.5576 11.0801 81.6748 19.5488 123.864 23.0352c16.1045 1.33203 60.8008 -3.0166 52.8164 -30.2402c-8.06348 -27.4873 -51.6377 -35.3828 -75.3535 -37.6475
c-4.42383 -0.480469 -6.42188 -0.666016 -6.16504 -0.583984c-2.47559 -0.352539 -4.95117 -0.6875 -7.41895 -1.0791c-6.16504 -0.979492 -12.3047 -2.09375 -18.4229 -3.31543s-12.2188 -2.55762 -18.2949 -3.98242
c-0.722656 -0.170898 -11.1543 -2.8916 -11.7852 -2.98047c-23.666 -6.65332 -47.0508 -14.2178 -70.3818 -21.9531c-54.2695 -17.9922 -108.849 -36.0137 -165.326 -45.7432c-17.3906 -2.99902 -66.0508 -7.54395 -71.2539 19.2314
c-5.12891 26.3867 40.2334 41.3125 58.8633 44.5254c12.8428 2.21484 25.5498 4.90039 38.2178 7.89551c0.925781 0.277344 10.0361 2.58203 11.917 3.11621c7.05566 2.00879 14.0859 4.11719 21.0986 6.27539c3.82129 1.1748 7.62891 2.40332 11.4434 3.61426
c-7.38672 20.1797 -9.91895 41.9121 -12.5977 63.7939c-4.53711 37.0605 -8.30176 74.2246 -11.6963 111.406c-23.1318 253.292 -23.873 508.126 -22.8789 762.309c-5.33496 -2.00879 -10.6562 -4.0459 -15.9482 -6.14355
c-0.644531 -0.25293 -5.15332 -2.07617 -7.24414 -2.90918c-1.99805 -0.862305 -6.66016 -2.85352 -7.31152 -3.13867c-8.75781 -3.83203 -17.4512 -7.7998 -26.0811 -11.9131c-15.3682 -7.32227 -30.4229 -15.2285 -45.4805 -23.167
c-23.9512 -12.6289 -65.0146 -20.3574 -89.8955 -5.78027z" />
    <glyph glyph-name="I" unicode="&#xce;" horiz-adv-x="423" 
d="M-4.50977 660.55c-25.8242 15.1328 -2.42383 37.7471 14.6357 47.4414c140.729 80.0049 307.526 122.333 469.011 124.688c15.9336 0.231445 61.2285 -2.27539 52.9941 -30.3438c-7.74609 -26.4121 -52.1152 -37.2783 -75.6064 -37.7734
c-18.0312 -0.37793 -36.0449 -1.12891 -54.0303 -2.48535c-9.5166 -0.719727 -19.0186 -1.58203 -28.5059 -2.61133c-3.29102 -0.356445 -6.58203 -0.741211 -9.86914 -1.13672c-0.986328 -0.142578 -2.48242 -0.356445 -4.16309 -0.609375
c-12.9531 -1.94824 -25.874 -4.0459 -38.749 -6.43945c0.0537109 -67.8643 0.0253906 -135.729 0.381836 -203.593c0.6875 -130.827 2.99902 -261.693 9.64453 -392.367c3.32324 -65.2852 7.75 -130.524 13.5234 -195.639
c2.88867 -32.5732 6.20801 -65.1006 9.75195 -97.6064c1.62012 -14.8652 2.56055 -31.0596 6.29688 -46.1494c40.5576 11.0801 81.6748 19.5488 123.864 23.0352c16.1045 1.33203 60.8008 -3.0166 52.8164 -30.2402c-8.06348 -27.4873 -51.6377 -35.3828 -75.3535 -37.6475
c-4.42383 -0.480469 -6.42188 -0.666016 -6.16504 -0.583984c-2.47559 -0.352539 -4.95117 -0.6875 -7.41895 -1.0791c-6.16504 -0.979492 -12.3047 -2.09375 -18.4229 -3.31543s-12.2188 -2.55762 -18.2949 -3.98242
c-0.722656 -0.170898 -11.1543 -2.8916 -11.7852 -2.98047c-23.666 -6.65332 -47.0508 -14.2178 -70.3818 -21.9531c-54.2695 -17.9922 -108.849 -36.0137 -165.326 -45.7432c-17.3906 -2.99902 -66.0508 -7.54395 -71.2539 19.2314
c-5.12891 26.3867 40.2334 41.3125 58.8633 44.5254c12.8428 2.21484 25.5498 4.90039 38.2178 7.89551c0.925781 0.277344 10.0361 2.58203 11.917 3.11621c7.05566 2.00879 14.0859 4.11719 21.0986 6.27539c3.82129 1.1748 7.62891 2.40332 11.4434 3.61426
c-7.38672 20.1797 -9.91895 41.9121 -12.5977 63.7939c-4.53711 37.0605 -8.30176 74.2246 -11.6963 111.406c-23.1318 253.292 -23.873 508.126 -22.8789 762.309c-5.33496 -2.00879 -10.6562 -4.0459 -15.9482 -6.14355
c-0.644531 -0.25293 -5.15332 -2.07617 -7.24414 -2.90918c-1.99805 -0.862305 -6.66016 -2.85352 -7.31152 -3.13867c-8.75781 -3.83203 -17.4512 -7.7998 -26.0811 -11.9131c-15.3682 -7.32227 -30.4229 -15.2285 -45.4805 -23.167
c-23.9512 -12.6289 -65.0146 -20.3574 -89.8955 -5.78027z" />
    <glyph glyph-name="I" unicode="&#xcd;" horiz-adv-x="423" 
d="M-4.50977 660.55c-25.8242 15.1328 -2.42383 37.7471 14.6357 47.4414c140.729 80.0049 307.526 122.333 469.011 124.688c15.9336 0.231445 61.2285 -2.27539 52.9941 -30.3438c-7.74609 -26.4121 -52.1152 -37.2783 -75.6064 -37.7734
c-18.0312 -0.37793 -36.0449 -1.12891 -54.0303 -2.48535c-9.5166 -0.719727 -19.0186 -1.58203 -28.5059 -2.61133c-3.29102 -0.356445 -6.58203 -0.741211 -9.86914 -1.13672c-0.986328 -0.142578 -2.48242 -0.356445 -4.16309 -0.609375
c-12.9531 -1.94824 -25.874 -4.0459 -38.749 -6.43945c0.0537109 -67.8643 0.0253906 -135.729 0.381836 -203.593c0.6875 -130.827 2.99902 -261.693 9.64453 -392.367c3.32324 -65.2852 7.75 -130.524 13.5234 -195.639
c2.88867 -32.5732 6.20801 -65.1006 9.75195 -97.6064c1.62012 -14.8652 2.56055 -31.0596 6.29688 -46.1494c40.5576 11.0801 81.6748 19.5488 123.864 23.0352c16.1045 1.33203 60.8008 -3.0166 52.8164 -30.2402c-8.06348 -27.4873 -51.6377 -35.3828 -75.3535 -37.6475
c-4.42383 -0.480469 -6.42188 -0.666016 -6.16504 -0.583984c-2.47559 -0.352539 -4.95117 -0.6875 -7.41895 -1.0791c-6.16504 -0.979492 -12.3047 -2.09375 -18.4229 -3.31543s-12.2188 -2.55762 -18.2949 -3.98242
c-0.722656 -0.170898 -11.1543 -2.8916 -11.7852 -2.98047c-23.666 -6.65332 -47.0508 -14.2178 -70.3818 -21.9531c-54.2695 -17.9922 -108.849 -36.0137 -165.326 -45.7432c-17.3906 -2.99902 -66.0508 -7.54395 -71.2539 19.2314
c-5.12891 26.3867 40.2334 41.3125 58.8633 44.5254c12.8428 2.21484 25.5498 4.90039 38.2178 7.89551c0.925781 0.277344 10.0361 2.58203 11.917 3.11621c7.05566 2.00879 14.0859 4.11719 21.0986 6.27539c3.82129 1.1748 7.62891 2.40332 11.4434 3.61426
c-7.38672 20.1797 -9.91895 41.9121 -12.5977 63.7939c-4.53711 37.0605 -8.30176 74.2246 -11.6963 111.406c-23.1318 253.292 -23.873 508.126 -22.8789 762.309c-5.33496 -2.00879 -10.6562 -4.0459 -15.9482 -6.14355
c-0.644531 -0.25293 -5.15332 -2.07617 -7.24414 -2.90918c-1.99805 -0.862305 -6.66016 -2.85352 -7.31152 -3.13867c-8.75781 -3.83203 -17.4512 -7.7998 -26.0811 -11.9131c-15.3682 -7.32227 -30.4229 -15.2285 -45.4805 -23.167
c-23.9512 -12.6289 -65.0146 -20.3574 -89.8955 -5.78027z" />
    <glyph glyph-name="J" unicode="J" horiz-adv-x="680" 
d="M43.5371 528.042c-17.9072 -0.0751953 -53.0449 0.149414 -56.3389 24.7627c-2.70312 20.1611 22.9219 33.3809 37.4736 40.1152c31.875 14.752 64.7158 27.7588 97.335 40.7471c59.6016 23.7334 120.051 45.334 181.194 64.7578
c48.7529 15.4854 97.958 29.6924 147.516 42.5674c-0.488281 6.06543 -0.96875 12.1309 -1.44629 18.1963c-2.11914 26.9961 37.2354 38.9482 57.2334 43.293c17.042 3.7041 65.5488 7.03418 69.2812 -18.7012c0.623047 -4.3125 1.21387 -8.63574 1.81934 -12.9521
c37.6982 7.94238 75.5527 15.1191 113.525 21.4443c17.5508 2.92383 66.5635 7.6709 71.8242 -19.3857c5.16016 -26.5508 -40.5439 -41.7119 -59.3311 -44.8818c-39.3398 -6.63477 -78.5371 -14.0215 -117.563 -22.252c12.9854 -109.109 20.5254 -219.201 25.3193 -328.741
c5.24219 -119.801 4.37305 -240.061 -9.93652 -359.256c-6.75977 -56.3066 -15.4209 -113.368 -32.5195 -167.588c-15.46 -49.0234 -39.1367 -102.848 -82.4795 -133.423c-57.1016 -40.2803 -142.883 -49.3799 -201.743 -7.58203
c-43.2646 30.7246 -71.5645 75.4355 -94.0547 122.646c-42.8477 89.9414 -53.543 191.365 -63.0947 289.302c-2.73926 28.0605 39.3145 40.7539 59.75 45.1953c16.9814 3.69336 69.5527 7.37598 72.334 -19.5205c10.2002 -98.6885 20.0479 -203.973 66.1514 -293.615
c17.0703 -33.1895 40.5156 -71.1582 72.7539 -92.1279c9.11426 12.4336 16.1406 25.7568 22.4121 40.2275c19.332 44.6035 29.8633 92.4307 37.9902 140.18c9.18457 53.9346 15.2422 108.429 18.4189 163.044c11.0723 190.36 -5.47754 380.593 -21.2266 570.295
c-21.7783 -5.89746 -43.4922 -12.0264 -65.1211 -18.458c-53.0586 -15.7842 -105.637 -33.1963 -157.624 -52.2148c-24.9521 -9.12793 -49.7725 -18.6191 -74.4463 -28.4775c-18.8652 -7.54004 -31.5479 -11.8496 -45.8828 -18.0537
c-12.5361 -20.0547 -48.2617 -29.457 -69.5234 -29.543zM413.507 -247.636c2.01953 -0.915039 3.91406 -1.40234 5.63086 -0.921875c-1.85547 0.527344 -3.73242 0.81543 -5.63086 0.921875z" />
    <glyph glyph-name="K" unicode="K" horiz-adv-x="648" 
d="M68 -173.169c-6.06543 40.3867 -11.5098 80.8662 -16.3496 121.413c-33.7383 282.742 -37.7129 569.07 -16.8535 852.948c2.14062 29.1611 35.7285 40.3936 60.5166 45.7783c14.9512 3.24805 34.2334 3.87891 49.1631 -0.405273
c6.41797 -1.84082 24.7812 -9.18848 24.0977 -19.3672c-5.31738 -79.1826 -9.14258 -158.486 -10.9658 -237.829c-1.9873 -86.54 -1.63086 -173.147 1.17871 -259.674c4.88281 4.24512 9.72949 8.49023 14.502 12.75c69.9121 62.3828 141.038 123.576 206.986 190.219
c62.9453 63.6152 129.136 132.388 154.08 220.648c11.7275 41.4951 139.406 53.3867 126.873 7.33008c-26.2695 -96.5234 -98.9307 -173.65 -167.589 -242.882c-65.542 -66.0898 -135.489 -127.586 -204.928 -189.502c-34.1367 -30.4395 -69.2637 -60.374 -101.605 -92.7373
c-1.23242 -1.23242 -2.46484 -2.46094 -3.69336 -3.69336c-0.449219 -0.669922 -0.851562 -1.25391 -1.21094 -1.75977c0.918945 -1.35352 2.13379 -3.11621 2.76758 -3.88184c7.12988 -8.6084 16.0547 -16.2158 24.0684 -23.998
c15.1328 -14.6943 30.5752 -29.0645 46.3594 -43.0537c65.1855 -57.7705 136.073 -109.092 211.32 -152.977c37.3135 -21.7607 76.2578 -42.2998 116.905 -56.8838c21.7109 -7.78516 43.8701 -14.3027 66.4355 -19.0996c13.7754 -2.93066 36.4941 -5.60938 56.9473 -6.51367
c21.2334 -0.94043 51.4307 -16.2441 32.8721 -40.377c-19.4775 -25.3291 -60.1064 -30.9385 -89.667 -29.6924c-111 4.67578 -215.255 49.6924 -309.007 106.676c-58.5752 35.6006 -114.533 75.792 -167.207 119.801c3.78223 -42.335 8.10938 -84.6201 13.1562 -126.82
c4.16016 -34.7666 8.75781 -69.4834 13.8291 -104.13c3.88184 -26.5361 6.88086 -54.6963 23.4775 -76.6455c29.9092 -39.5605 -97.2852 -76.917 -123.972 -41.9473c-21.5146 28.1924 -27.3594 62.1514 -32.4883 96.3057z" />
    <glyph glyph-name="L" unicode="L" horiz-adv-x="201" 
d="M-113.507 -244.865c15.6953 10.5098 32.3955 16.3398 51.0928 18.7158c2.66406 0.341797 5.58398 0.676758 8.65723 0.944336c3.08398 0.882812 6.16797 1.75488 9.24902 2.64551c12.1836 3.51562 24.3457 7.09863 36.5078 10.6777
c21.7285 6.38965 43.4531 12.8008 65.207 19.1045c-2.83105 2.64941 -4.81445 5.75098 -4.91797 9.29492c-2.29004 78.1816 -4.41309 156.366 -6.48926 234.555c-7.21582 271.616 -7.9209 544.247 -29.8271 815.189c-2.20117 27.2275 37.6201 39.3115 57.75 43.6846
c16.5859 3.60449 66.9775 7.12695 69.9082 -18.8682c8.71484 -77.2695 13.5762 -154.889 17.0732 -232.554c12.2441 -271.84 17.1914 -544.232 24.0508 -816.258c0.00683594 -0.242188 -0.0107422 -0.477539 -0.0107422 -0.71582
c11.5215 2.75293 23.0674 5.41309 34.6455 7.90234c103.065 22.1777 211.241 33.5283 316.095 17.918c19.624 -2.91992 51.2715 -14.5557 32.125 -39.457c-17.832 -23.1924 -59.8965 -32.9932 -87.626 -29.0146c-23.1816 3.32617 -53.8564 6.00098 -72.5146 6.45703
c-17.4766 0.427734 -47.2969 -1.03223 -69.4346 -2.9873c-5.62402 -0.495117 -11.2295 -1.12598 -16.8457 -1.65332c-2.37598 -0.224609 -3.9043 -0.356445 -4.84473 -0.431641c-0.772461 -0.12793 -2.13965 -0.337891 -4.41504 -0.658203
c-12.3154 -1.74902 -24.5986 -3.6582 -36.8506 -5.80957c-24.6416 -4.32715 -49.127 -9.50586 -73.4766 -15.251c-12.3516 -2.91699 -24.6641 -5.99414 -36.958 -9.14941c-1.96973 -0.509766 -3.47266 -0.890625 -4.62305 -1.18262
c-1.18945 -0.328125 -2.81348 -0.773438 -5.0498 -1.37891c-6.69238 -1.8125 -13.3809 -3.63281 -20.0586 -5.48438c-24.499 -6.78809 -48.9238 -13.8574 -73.3447 -20.9238c-24.4385 -7.07617 -48.8877 -14.1172 -73.4121 -20.8838
c-31.6436 -8.73242 -74.9727 -25.2969 -105.694 -6.06836c-9.19531 5.75488 -12.7998 11.9766 -11.0225 22.6543c1.28223 7.68945 9.04297 14.9619 15.0547 18.9863z" />
    <glyph glyph-name="M" unicode="M" horiz-adv-x="854" 
d="M71.4648 -196.668c-27.0605 63.2871 -28.1426 137.938 -34.1719 205.639c-22.6514 254.557 -21.8535 511.845 3.45117 766.181c1.14648 11.5537 17.8281 20.4932 26.8418 25.4795c15.2676 8.45117 33.4814 11.9414 50.7334 13.2803
c22.0059 1.70996 56.8018 -2.97363 54.376 -31.1338c-0.0673828 -0.776367 -0.121094 -1.54883 -0.188477 -2.3252c13.8828 -2.03027 26.3516 -7.8252 31.1699 -20.5537c29.8311 -78.8154 57.9385 -158.251 92.5811 -235.15
c15.5996 -34.6318 31.541 -70.1572 52.1904 -102.136c8.2373 -12.7539 17.7822 -26.377 29.752 -35.9434c0.334961 -0.263672 0.793945 -0.581055 1.24316 -0.890625c1.8623 1.69922 3.58203 3.40918 5.62988 5.53223c10.8662 11.251 20.8916 23.417 30.625 35.6475
c20.2295 25.415 38.6777 52.2041 55.9434 79.709c34.0303 54.2129 63.1348 111.271 93.7314 167.439c16.3262 29.9736 33.0078 59.7871 50.7158 88.9697c16.3506 26.9492 32.9111 56.6416 54.2588 79.9941c21.7676 23.8125 53.4434 34.3936 84.9727 36.8398
c23.8193 1.84863 54.4766 -4.15625 64.6338 -28.4385c7.01562 -16.7744 6.05762 -37.8545 6.83008 -55.7861c0.804688 -18.6123 0.854492 -37.2529 0.426758 -55.876c-1.74512 -76.2549 -8.73242 -152.367 -11.5605 -228.597
c-2.80273 -75.6172 -3.5752 -151.327 -1.64453 -226.979c3.85352 -151.018 18.8369 -301.86 49.5586 -449.864c5.71289 -27.5303 -42.2783 -41.7656 -60.4209 -45.7051c-19.207 -4.17383 -67.5469 -7.29688 -73.1416 19.7422
c-15.3037 73.9717 -26.8076 148.659 -34.6426 223.788c-13.7939 132.252 -17.0312 265.447 -13.5088 398.318c1.77051 66.7031 5.49219 133.285 10.0078 199.849c1.22559 18.0674 2.39062 36.1416 3.29492 54.2266c-11.5107 -21.0771 -22.8037 -42.2783 -34.2109 -63.4014
c-35.8105 -66.3213 -72.4365 -132.843 -118.319 -192.86c-23.3955 -30.6035 -49.1553 -62.3574 -81.7676 -83.498c-44.6006 -28.9121 -103.194 -43.5605 -155.238 -27.416c-35.5361 11.0225 -61.7773 37.7832 -80.8594 68.7539
c-21.5293 34.9385 -38.7422 73.1709 -55.5527 110.545c-4.07031 9.05664 -8.05957 18.1523 -11.9912 27.2764c-3.35156 -109.334 -2.51074 -218.807 2.44336 -328.076c2.86328 -63.127 7.0625 -126.208 12.6152 -189.157
c5.21777 -59.1455 6.63477 -122.529 29.4707 -178.096c10.1855 -24.7803 -45.3164 -41.6221 -58.9355 -44.582c-22.7754 -4.94727 -60.541 -6.00879 -71.3428 19.2559zM389.637 378.766c2.40039 -1.50293 2.45703 -0.512695 0 0zM364.888 374.261
c-1.06445 -0.466797 -1.75977 -0.833984 -1.63477 -0.944336c0.0820312 -0.0820312 0.733398 0.324219 1.63477 0.944336z" />
    <glyph glyph-name="N" unicode="N" horiz-adv-x="656" 
d="M57.5879 -75.2041c-5.39941 35.5332 -10.1279 71.1602 -14.2949 106.864c-30.4648 260.856 -29.375 525.21 1.25 785.999c0.626953 5.34961 4.4375 10.0859 9.24512 14.1465c-0.797852 21.5186 45.9033 35.5576 58.6289 38.3213
c22.7969 4.9502 58.4043 5.63086 69.6689 -18.8047c33.0791 -71.749 63.0342 -145.059 94.0977 -217.698c54.7607 -128.063 109.233 -256.252 163.863 -384.372c17.6504 -41.3984 35.6504 -82.6582 54.7295 -123.362c-7.64258 246.208 -11.9844 493.638 -3.19824 739.75
c1.01855 28.5664 36.0098 39.8916 59.4795 44.9912c14.6982 3.19141 33.6455 3.81445 48.3223 -0.398438c6.99121 -2.00879 23.6807 -8.8291 23.6846 -19.0361c0.0390625 -74.2998 -1.40332 -148.606 -1.74512 -222.909
c-0.612305 -132.202 0.321289 -264.415 2.80762 -396.596c1.22168 -64.9258 2.76758 -129.848 4.65137 -194.756c1.8916 -65.1572 8.88965 -132.298 0.0146484 -197.124c-1.50977 -11.041 -16.874 -19.873 -25.8311 -24.5205
c-15.0508 -7.81055 -32.0176 -11.4756 -48.8203 -12.7793c-16.9775 -1.31738 -42.5635 1.37891 -50.2246 16.9033c-5.67676 2.34668 -10.292 5.64453 -13.3516 10.0283c-42.8232 61.3252 -78.5693 126.846 -111.175 194.079
c-58.9463 121.55 -108.644 247.743 -161.154 372.152c-20.1865 47.8232 -40.7363 95.5645 -61.1865 143.359c-4.74023 -116.122 -3.67871 -232.482 3.41895 -348.483c3.89258 -63.6328 9.4873 -127.184 16.8418 -190.51c3.61523 -31.1055 7.63965 -62.1689 12.0273 -93.1787
c3.67578 -25.9736 5.95117 -54.5869 20.2324 -77.2451c27.0137 -42.8477 -97.5273 -75.4746 -121.561 -41.1279c-20.2188 28.8945 -25.2471 62.2656 -30.4219 96.3066z" />
    <glyph glyph-name="O" unicode="O" horiz-adv-x="605" 
d="M105.253 143.823c-39.0518 45.9434 -63.46 106.752 -78.5752 164.722c-26.9463 103.308 -27.2168 214.272 -2.75684 318.118c20.7559 88.1318 60.0283 179.198 131.785 237.585c83.4521 67.8994 219.03 87.1318 303.914 12.918
c68.3193 -59.7295 99.5459 -158.774 114.967 -245.19c17.2979 -96.9326 20.4141 -197.063 13.4443 -295.153c-7.16211 -100.782 -24.8701 -200.443 -55.1641 -296.902c-28.043 -89.293 -68.6299 -193.868 -156.926 -239.28
c-49.3838 -25.4004 -120.425 -32.8975 -167.59 1.56738c-36.9541 27.0029 -56.8623 68.8535 -71.5146 111.125c-25.6035 73.8789 -31.5801 152.506 -31.584 230.491zM295.406 856.499c2.58594 0.0390625 4.96094 0.185547 0 0zM137.928 551.01
c-8.47949 -82.6689 1.28809 -168.125 25.9688 -247.339c5.26367 -16.8994 11.6953 -34.8848 19.5273 -52.6172c10.5664 0.630859 21.5752 -0.0957031 30.8779 -2.7666c6.75977 -1.94141 23.9971 -8.92578 23.751 -19.0898
c-0.484375 -20.0508 -0.801758 -40.2227 -0.758789 -60.4199c17.5547 -17.0635 38.2295 -29.7891 62.6113 -35.0918c26.2412 -5.70508 27.6689 -28.374 8.42969 -43.3604c-18.2383 -14.21 -43.0938 -20.3213 -66.7275 -19.7197
c4.2168 -43.6816 12.0986 -86.8574 26.2559 -128.637c10.0254 -29.5957 24.2539 -63.96 48.1582 -84.2783c11.1865 11.7744 22.8398 28.6094 31.8965 43.0615c20.6455 32.9473 34.6426 70.4746 47.1367 107.129c14.1143 41.4092 25.9775 83.5986 35.6113 126.272
c19.2676 85.376 29.7168 172.571 30.5928 260.098c0.862305 85.8711 -5.33105 173.689 -25.7207 257.316c-9.18457 37.6807 -21.4111 75.5215 -40.1621 109.608c-18.0498 32.8047 -41.7197 68.4834 -75.2939 87.0029c-7.89258 4.35254 -11.1299 5.4668 -19.8018 7.59277
c8.77148 -2.14746 -3.66895 0.107422 -6.8916 0.652344c-0.37793 -0.0175781 -0.719727 -0.0283203 -1.15039 -0.0458984c-0.505859 -0.0214844 -0.972656 -0.0390625 -1.40723 -0.0537109c-0.138672 -0.0429688 -0.255859 -0.0820312 -0.40918 -0.12793
c-3.7041 -1.10059 -15.0762 -5.2002 -2.00879 -0.289062c-2.05859 -0.772461 -4.14551 -1.46387 -6.22559 -2.16895c-0.648438 -0.548828 -9.30273 -4.55566 -10.1436 -5.00781c-1.62402 -0.873047 -2.75684 -1.4502 -3.58691 -1.85254
c-0.698242 -0.601562 -1.80273 -1.48828 -3.58008 -2.83789c-3.72852 -2.83105 -7.44336 -5.63086 -11.0371 -8.63672c-5.65918 -4.7334 -7.68945 -6.74902 -13.1562 -12.6963c-12.7002 -13.8154 -23.9541 -29.0693 -33.6982 -45.0996
c-40.7256 -66.998 -61.126 -149.268 -69.0576 -226.598z" />
    <glyph glyph-name="O" unicode="&#xd6;" horiz-adv-x="605" 
d="M105.253 143.823c-39.0518 45.9434 -63.46 106.752 -78.5752 164.722c-26.9463 103.308 -27.2168 214.272 -2.75684 318.118c20.7559 88.1318 60.0283 179.198 131.785 237.585c83.4521 67.8994 219.03 87.1318 303.914 12.918
c68.3193 -59.7295 99.5459 -158.774 114.967 -245.19c17.2979 -96.9326 20.4141 -197.063 13.4443 -295.153c-7.16211 -100.782 -24.8701 -200.443 -55.1641 -296.902c-28.043 -89.293 -68.6299 -193.868 -156.926 -239.28
c-49.3838 -25.4004 -120.425 -32.8975 -167.59 1.56738c-36.9541 27.0029 -56.8623 68.8535 -71.5146 111.125c-25.6035 73.8789 -31.5801 152.506 -31.584 230.491zM295.406 856.499c2.58594 0.0390625 4.96094 0.185547 0 0zM137.928 551.01
c-8.47949 -82.6689 1.28809 -168.125 25.9688 -247.339c5.26367 -16.8994 11.6953 -34.8848 19.5273 -52.6172c10.5664 0.630859 21.5752 -0.0957031 30.8779 -2.7666c6.75977 -1.94141 23.9971 -8.92578 23.751 -19.0898
c-0.484375 -20.0508 -0.801758 -40.2227 -0.758789 -60.4199c17.5547 -17.0635 38.2295 -29.7891 62.6113 -35.0918c26.2412 -5.70508 27.6689 -28.374 8.42969 -43.3604c-18.2383 -14.21 -43.0938 -20.3213 -66.7275 -19.7197
c4.2168 -43.6816 12.0986 -86.8574 26.2559 -128.637c10.0254 -29.5957 24.2539 -63.96 48.1582 -84.2783c11.1865 11.7744 22.8398 28.6094 31.8965 43.0615c20.6455 32.9473 34.6426 70.4746 47.1367 107.129c14.1143 41.4092 25.9775 83.5986 35.6113 126.272
c19.2676 85.376 29.7168 172.571 30.5928 260.098c0.862305 85.8711 -5.33105 173.689 -25.7207 257.316c-9.18457 37.6807 -21.4111 75.5215 -40.1621 109.608c-18.0498 32.8047 -41.7197 68.4834 -75.2939 87.0029c-7.89258 4.35254 -11.1299 5.4668 -19.8018 7.59277
c8.77148 -2.14746 -3.66895 0.107422 -6.8916 0.652344c-0.37793 -0.0175781 -0.719727 -0.0283203 -1.15039 -0.0458984c-0.505859 -0.0214844 -0.972656 -0.0390625 -1.40723 -0.0537109c-0.138672 -0.0429688 -0.255859 -0.0820312 -0.40918 -0.12793
c-3.7041 -1.10059 -15.0762 -5.2002 -2.00879 -0.289062c-2.05859 -0.772461 -4.14551 -1.46387 -6.22559 -2.16895c-0.648438 -0.548828 -9.30273 -4.55566 -10.1436 -5.00781c-1.62402 -0.873047 -2.75684 -1.4502 -3.58691 -1.85254
c-0.698242 -0.601562 -1.80273 -1.48828 -3.58008 -2.83789c-3.72852 -2.83105 -7.44336 -5.63086 -11.0371 -8.63672c-5.65918 -4.7334 -7.68945 -6.74902 -13.1562 -12.6963c-12.7002 -13.8154 -23.9541 -29.0693 -33.6982 -45.0996
c-40.7256 -66.998 -61.126 -149.268 -69.0576 -226.598z" />
    <glyph glyph-name="O" unicode="&#xd5;" horiz-adv-x="605" 
d="M105.253 143.823c-39.0518 45.9434 -63.46 106.752 -78.5752 164.722c-26.9463 103.308 -27.2168 214.272 -2.75684 318.118c20.7559 88.1318 60.0283 179.198 131.785 237.585c83.4521 67.8994 219.03 87.1318 303.914 12.918
c68.3193 -59.7295 99.5459 -158.774 114.967 -245.19c17.2979 -96.9326 20.4141 -197.063 13.4443 -295.153c-7.16211 -100.782 -24.8701 -200.443 -55.1641 -296.902c-28.043 -89.293 -68.6299 -193.868 -156.926 -239.28
c-49.3838 -25.4004 -120.425 -32.8975 -167.59 1.56738c-36.9541 27.0029 -56.8623 68.8535 -71.5146 111.125c-25.6035 73.8789 -31.5801 152.506 -31.584 230.491zM295.406 856.499c2.58594 0.0390625 4.96094 0.185547 0 0zM137.928 551.01
c-8.47949 -82.6689 1.28809 -168.125 25.9688 -247.339c5.26367 -16.8994 11.6953 -34.8848 19.5273 -52.6172c10.5664 0.630859 21.5752 -0.0957031 30.8779 -2.7666c6.75977 -1.94141 23.9971 -8.92578 23.751 -19.0898
c-0.484375 -20.0508 -0.801758 -40.2227 -0.758789 -60.4199c17.5547 -17.0635 38.2295 -29.7891 62.6113 -35.0918c26.2412 -5.70508 27.6689 -28.374 8.42969 -43.3604c-18.2383 -14.21 -43.0938 -20.3213 -66.7275 -19.7197
c4.2168 -43.6816 12.0986 -86.8574 26.2559 -128.637c10.0254 -29.5957 24.2539 -63.96 48.1582 -84.2783c11.1865 11.7744 22.8398 28.6094 31.8965 43.0615c20.6455 32.9473 34.6426 70.4746 47.1367 107.129c14.1143 41.4092 25.9775 83.5986 35.6113 126.272
c19.2676 85.376 29.7168 172.571 30.5928 260.098c0.862305 85.8711 -5.33105 173.689 -25.7207 257.316c-9.18457 37.6807 -21.4111 75.5215 -40.1621 109.608c-18.0498 32.8047 -41.7197 68.4834 -75.2939 87.0029c-7.89258 4.35254 -11.1299 5.4668 -19.8018 7.59277
c8.77148 -2.14746 -3.66895 0.107422 -6.8916 0.652344c-0.37793 -0.0175781 -0.719727 -0.0283203 -1.15039 -0.0458984c-0.505859 -0.0214844 -0.972656 -0.0390625 -1.40723 -0.0537109c-0.138672 -0.0429688 -0.255859 -0.0820312 -0.40918 -0.12793
c-3.7041 -1.10059 -15.0762 -5.2002 -2.00879 -0.289062c-2.05859 -0.772461 -4.14551 -1.46387 -6.22559 -2.16895c-0.648438 -0.548828 -9.30273 -4.55566 -10.1436 -5.00781c-1.62402 -0.873047 -2.75684 -1.4502 -3.58691 -1.85254
c-0.698242 -0.601562 -1.80273 -1.48828 -3.58008 -2.83789c-3.72852 -2.83105 -7.44336 -5.63086 -11.0371 -8.63672c-5.65918 -4.7334 -7.68945 -6.74902 -13.1562 -12.6963c-12.7002 -13.8154 -23.9541 -29.0693 -33.6982 -45.0996
c-40.7256 -66.998 -61.126 -149.268 -69.0576 -226.598z" />
    <glyph glyph-name="O" unicode="&#xd4;" horiz-adv-x="605" 
d="M105.253 143.823c-39.0518 45.9434 -63.46 106.752 -78.5752 164.722c-26.9463 103.308 -27.2168 214.272 -2.75684 318.118c20.7559 88.1318 60.0283 179.198 131.785 237.585c83.4521 67.8994 219.03 87.1318 303.914 12.918
c68.3193 -59.7295 99.5459 -158.774 114.967 -245.19c17.2979 -96.9326 20.4141 -197.063 13.4443 -295.153c-7.16211 -100.782 -24.8701 -200.443 -55.1641 -296.902c-28.043 -89.293 -68.6299 -193.868 -156.926 -239.28
c-49.3838 -25.4004 -120.425 -32.8975 -167.59 1.56738c-36.9541 27.0029 -56.8623 68.8535 -71.5146 111.125c-25.6035 73.8789 -31.5801 152.506 -31.584 230.491zM295.406 856.499c2.58594 0.0390625 4.96094 0.185547 0 0zM137.928 551.01
c-8.47949 -82.6689 1.28809 -168.125 25.9688 -247.339c5.26367 -16.8994 11.6953 -34.8848 19.5273 -52.6172c10.5664 0.630859 21.5752 -0.0957031 30.8779 -2.7666c6.75977 -1.94141 23.9971 -8.92578 23.751 -19.0898
c-0.484375 -20.0508 -0.801758 -40.2227 -0.758789 -60.4199c17.5547 -17.0635 38.2295 -29.7891 62.6113 -35.0918c26.2412 -5.70508 27.6689 -28.374 8.42969 -43.3604c-18.2383 -14.21 -43.0938 -20.3213 -66.7275 -19.7197
c4.2168 -43.6816 12.0986 -86.8574 26.2559 -128.637c10.0254 -29.5957 24.2539 -63.96 48.1582 -84.2783c11.1865 11.7744 22.8398 28.6094 31.8965 43.0615c20.6455 32.9473 34.6426 70.4746 47.1367 107.129c14.1143 41.4092 25.9775 83.5986 35.6113 126.272
c19.2676 85.376 29.7168 172.571 30.5928 260.098c0.862305 85.8711 -5.33105 173.689 -25.7207 257.316c-9.18457 37.6807 -21.4111 75.5215 -40.1621 109.608c-18.0498 32.8047 -41.7197 68.4834 -75.2939 87.0029c-7.89258 4.35254 -11.1299 5.4668 -19.8018 7.59277
c8.77148 -2.14746 -3.66895 0.107422 -6.8916 0.652344c-0.37793 -0.0175781 -0.719727 -0.0283203 -1.15039 -0.0458984c-0.505859 -0.0214844 -0.972656 -0.0390625 -1.40723 -0.0537109c-0.138672 -0.0429688 -0.255859 -0.0820312 -0.40918 -0.12793
c-3.7041 -1.10059 -15.0762 -5.2002 -2.00879 -0.289062c-2.05859 -0.772461 -4.14551 -1.46387 -6.22559 -2.16895c-0.648438 -0.548828 -9.30273 -4.55566 -10.1436 -5.00781c-1.62402 -0.873047 -2.75684 -1.4502 -3.58691 -1.85254
c-0.698242 -0.601562 -1.80273 -1.48828 -3.58008 -2.83789c-3.72852 -2.83105 -7.44336 -5.63086 -11.0371 -8.63672c-5.65918 -4.7334 -7.68945 -6.74902 -13.1562 -12.6963c-12.7002 -13.8154 -23.9541 -29.0693 -33.6982 -45.0996
c-40.7256 -66.998 -61.126 -149.268 -69.0576 -226.598z" />
    <glyph glyph-name="O" unicode="&#xd3;" horiz-adv-x="605" 
d="M105.253 143.823c-39.0518 45.9434 -63.46 106.752 -78.5752 164.722c-26.9463 103.308 -27.2168 214.272 -2.75684 318.118c20.7559 88.1318 60.0283 179.198 131.785 237.585c83.4521 67.8994 219.03 87.1318 303.914 12.918
c68.3193 -59.7295 99.5459 -158.774 114.967 -245.19c17.2979 -96.9326 20.4141 -197.063 13.4443 -295.153c-7.16211 -100.782 -24.8701 -200.443 -55.1641 -296.902c-28.043 -89.293 -68.6299 -193.868 -156.926 -239.28
c-49.3838 -25.4004 -120.425 -32.8975 -167.59 1.56738c-36.9541 27.0029 -56.8623 68.8535 -71.5146 111.125c-25.6035 73.8789 -31.5801 152.506 -31.584 230.491zM295.406 856.499c2.58594 0.0390625 4.96094 0.185547 0 0zM137.928 551.01
c-8.47949 -82.6689 1.28809 -168.125 25.9688 -247.339c5.26367 -16.8994 11.6953 -34.8848 19.5273 -52.6172c10.5664 0.630859 21.5752 -0.0957031 30.8779 -2.7666c6.75977 -1.94141 23.9971 -8.92578 23.751 -19.0898
c-0.484375 -20.0508 -0.801758 -40.2227 -0.758789 -60.4199c17.5547 -17.0635 38.2295 -29.7891 62.6113 -35.0918c26.2412 -5.70508 27.6689 -28.374 8.42969 -43.3604c-18.2383 -14.21 -43.0938 -20.3213 -66.7275 -19.7197
c4.2168 -43.6816 12.0986 -86.8574 26.2559 -128.637c10.0254 -29.5957 24.2539 -63.96 48.1582 -84.2783c11.1865 11.7744 22.8398 28.6094 31.8965 43.0615c20.6455 32.9473 34.6426 70.4746 47.1367 107.129c14.1143 41.4092 25.9775 83.5986 35.6113 126.272
c19.2676 85.376 29.7168 172.571 30.5928 260.098c0.862305 85.8711 -5.33105 173.689 -25.7207 257.316c-9.18457 37.6807 -21.4111 75.5215 -40.1621 109.608c-18.0498 32.8047 -41.7197 68.4834 -75.2939 87.0029c-7.89258 4.35254 -11.1299 5.4668 -19.8018 7.59277
c8.77148 -2.14746 -3.66895 0.107422 -6.8916 0.652344c-0.37793 -0.0175781 -0.719727 -0.0283203 -1.15039 -0.0458984c-0.505859 -0.0214844 -0.972656 -0.0390625 -1.40723 -0.0537109c-0.138672 -0.0429688 -0.255859 -0.0820312 -0.40918 -0.12793
c-3.7041 -1.10059 -15.0762 -5.2002 -2.00879 -0.289062c-2.05859 -0.772461 -4.14551 -1.46387 -6.22559 -2.16895c-0.648438 -0.548828 -9.30273 -4.55566 -10.1436 -5.00781c-1.62402 -0.873047 -2.75684 -1.4502 -3.58691 -1.85254
c-0.698242 -0.601562 -1.80273 -1.48828 -3.58008 -2.83789c-3.72852 -2.83105 -7.44336 -5.63086 -11.0371 -8.63672c-5.65918 -4.7334 -7.68945 -6.74902 -13.1562 -12.6963c-12.7002 -13.8154 -23.9541 -29.0693 -33.6982 -45.0996
c-40.7256 -66.998 -61.126 -149.268 -69.0576 -226.598z" />
    <glyph glyph-name="P" unicode="P" horiz-adv-x="591" 
d="M115.24 766.703c-12.668 -41.2236 -140.402 -53.3145 -127.296 -7.35742c9.60547 33.7061 44.668 51.916 72.8604 68.0283c28.2314 16.1367 57.6348 29.624 87.6582 42.0469c59.1309 24.4678 122.08 41.5273 185.531 49.8936
c110.972 14.6309 238.975 9.4209 333.948 -57.3066c39.041 -27.4268 72.8682 -64.2422 84.9199 -111.62c13.0527 -51.3105 -4.81152 -105.359 -29.9092 -149.924c-52.29 -92.8408 -133.467 -171.308 -213.486 -240.439
c-76.8926 -66.4326 -161.542 -123.918 -250.995 -172.098c4.11719 -109.793 11.8389 -219.543 22.8193 -329.403c2.73926 -27.4229 -38.4922 -39.8594 -58.4189 -44.1865c-17.2021 -3.73926 -67.1699 -7.19434 -70.7168 19.0859
c-36.167 268.008 -39.7139 542.088 -19.0322 811.503c0.87207 11.3574 17.8428 20.4111 26.625 25.2725c12.4512 6.8877 27.4238 10.2637 41.417 12.041c13.291 1.68848 26.625 1.73438 39.6992 -1.53125c6.36426 -1.58887 24.4775 -9.26074 23.8184 -19.1475
c-8.60449 -129 -11.2256 -257.641 -8.71875 -386.167c54.4443 34.6143 106.441 73.5234 157.826 118.319c33.9092 29.5635 65.3496 60.374 96.0137 93.6777c31.8008 34.543 63.8828 70.8379 87.1602 111.855c20.5244 36.1631 35.8779 79.04 27.3301 120.901
c-7.39746 36.2305 -32.0645 67.0654 -61.7705 88.1924c-32.8438 23.3633 -77.9707 39.4824 -111.876 45.1064c-12.3369 2.04785 -24.8623 3.24805 -37.335 4.07422c-5.3457 0.352539 -10.7061 0.605469 -16.0625 0.761719
c-1.56738 0.0107422 -4.90137 0.0429688 -5.58496 0.0253906c-12.6045 -0.328125 -25.1689 -0.78418 -37.7412 -1.83496c-5.22852 -0.43457 -10.4355 -1.07227 -15.6602 -1.53906c-0.541016 -0.0498047 -0.975586 -0.0849609 -1.36426 -0.113281
c-0.865234 -0.149414 -1.86914 -0.320312 -3.05469 -0.519531c-14.4062 -2.40723 -28.7695 -4.80762 -43.0439 -7.93848c-4.07031 -0.893555 -8.12012 -1.8877 -12.1875 -2.7959c-1.79102 -0.398438 -3.14453 -0.694336 -4.16992 -0.908203
c-0.847656 -0.25293 -1.87012 -0.551758 -3.0957 -0.904297c-22.0879 -6.38184 -43.6738 -13.7295 -65.1494 -21.9355c-2.09375 -0.851562 -3.56152 -1.44238 -4.53711 -1.83398c-3.16211 -1.36719 -6.31738 -2.74512 -9.45898 -4.15918
c-3.7998 -1.7168 -7.58203 -3.46875 -11.3496 -5.25293c-11.3008 -5.34961 -22.4482 -11.0303 -33.4209 -17.0273c-3.6543 -1.99805 -7.29785 -4.02832 -10.916 -6.09375c0.648438 0.370117 -16.7812 -10.2324 -8.55469 -4.86914
c-8.02734 -5.23145 -9.90039 -4.70117 -12.7207 -13.8789z" />
    <glyph glyph-name="Q" unicode="Q" horiz-adv-x="650" 
d="M-14.8965 -171.77c-17.1025 -3.67188 -65.623 -6.9873 -70.6914 19.0723c-5.18945 26.6895 40.0342 40.2158 58.3936 44.1689c86.5508 18.6367 173.828 33.207 261.555 43.8594c-1.2002 0.623047 -2.4043 1.23535 -3.58984 1.89453
c-37.8477 20.9736 -60.7725 57.0908 -78.3516 95.2881c-31.5049 68.4482 -39.2266 143.816 -39.4404 218.562c-38.1543 37.499 -65.6914 86.9033 -83.9336 139.304c-33.9199 97.4424 -35.2734 206.345 -6.00195 305.158c24.8096 83.7412 72.2451 167.265 146.68 216.082
c85.9385 56.3643 214.714 80.7715 306.39 23.2715c74.0605 -46.4521 117.457 -130.485 139.061 -212.776c23.7158 -90.3477 28.3564 -186.761 21.6074 -279.604c-7.02637 -96.6514 -27.2949 -191.632 -61.9443 -282.207
c-29.9766 -78.3633 -72.8994 -162.706 -146.551 -207.876c84.3965 4.71582 169.018 5.98047 253.631 3.74707c20.6709 -0.544922 49.458 -15.9023 31.7256 -38.9629c-18.9795 -24.6777 -57.8672 -29.4248 -86.5371 -28.6553
c-51.0791 1.37109 -103.041 1.2002 -159.315 -0.708984c-54.9854 -1.8623 -109.914 -5.32715 -164.7 -10.3809c-28.5059 -2.63184 -56.9658 -5.72656 -85.3828 -9.18457c-2.52832 -0.30957 -3.93848 -0.476562 -4.66113 -0.554688
c-0.875977 -0.12793 -2.4541 -0.348633 -5.1748 -0.722656c-6.79883 -0.929688 -13.6045 -1.83105 -20.4033 -2.78516c-13.5908 -1.90527 -27.167 -3.91016 -40.7295 -6.01465c-54.1631 -8.4082 -108.048 -18.459 -161.634 -29.9736zM349.322 -12.3291
c3.64355 -0.28125 3.69629 -0.28125 0.0527344 0.00390625c-0.0175781 0 -0.0351562 -0.00390625 -0.0527344 -0.00390625zM347.651 -12.5322c-0.110352 -0.0146484 -0.216797 -0.0283203 -0.327148 -0.0390625c1.4248 -0.655273 1.11816 -0.40625 0.327148 0.0390625z
M335.799 -14.0557c-0.701172 -0.601562 -0.492188 -0.449219 0.113281 0.0205078c-0.0390625 -0.00683594 -0.0742188 -0.0136719 -0.113281 -0.0205078zM134.6 624.7c-9.99023 -79.2715 2.83691 -161.712 33.0166 -235.459
c4.99316 -12.1982 10.7275 -24.2607 17.1953 -35.9102c12.3936 1.39941 26.0664 1.00098 37.2637 -2.21191c6.70312 -1.92285 24.0508 -8.93848 23.752 -19.0889c-0.512695 -17.252 -0.861328 -34.625 -0.833008 -52.0264
c20.8916 -16.5146 45.0771 -28.4316 72.6748 -33.3252c26.9072 -4.76855 26.9639 -28.9189 8.42676 -43.3604c-21.1484 -16.4756 -49.4727 -21.1123 -75.8242 -18.8262c5.11035 -41.374 14.6514 -81.9922 31.6113 -120.616
c7.62109 -17.3623 17.2441 -33.8877 29.4814 -48.4287c5.43164 -6.45312 11.874 -13.3838 18.2852 -18.0566c3.68945 -2.68848 7.80664 -4.98535 11.8877 -7.0791c15.8633 11.8594 24.4932 21.0156 38.208 38.5059c49.2764 62.8418 76.4365 144.57 97.0039 220.75
c22.1807 82.1523 33.5488 166.979 32.5977 252.088c-0.875977 78.3564 -9.47656 159.369 -35.5215 233.68c-21.2373 60.5918 -65.4639 137.502 -128.113 158.301c-4.44434 1.47754 -9.11719 2.68848 -13.751 3.67871
c-0.566406 -0.0390625 -7.02734 0.901367 -8.41992 1.02246c-1.95508 0.166992 -8.03125 0.145508 -8.55859 0.220703c-2.30469 -0.12793 -4.60547 -0.266602 -6.91699 -0.376953c-0.505859 -0.0253906 -0.961914 -0.0429688 -1.40039 -0.0605469
c-0.334961 -0.114258 -0.726562 -0.239258 -1.22168 -0.381836c-2.19727 -0.630859 -8.60059 -2.06641 -8.68262 -1.86719c-1.70215 -0.530273 -3.42578 -1.00391 -5.11426 -1.57422c0.462891 0.15625 -6.5957 -2.66113 -9.50586 -3.71875
c-3.52539 -1.83789 -10.9443 -5.54883 -12.2158 -6.22949c-0.512695 -0.277344 -2.94922 -1.82617 -4.15332 -2.58496c-7.24414 -4.87598 -14.2246 -10.2178 -20.8594 -15.8809c-9.1709 -7.82812 -20.3359 -20.2002 -29.5352 -31.9531
c-46.2061 -59.042 -71.4893 -135.521 -80.7773 -209.229z" />
    <glyph glyph-name="R" unicode="R" horiz-adv-x="748" 
d="M116.246 730.191c-12.668 -41.2168 -140.398 -53.3184 -127.303 -7.36133c9.3457 32.7939 42.8447 50.623 70.2715 66.4502c29.5605 17.0596 60.417 31.2061 91.9502 44.1875c60.9863 25.1016 125.72 41.5166 191.091 49.8145
c107.966 13.7012 233.184 6.30078 324.935 -58.8848c38.9912 -27.6973 72.7969 -64.8965 84.0508 -112.674c12.668 -53.7715 -7.91699 -108.062 -34.3613 -154.091c-52.2256 -90.9209 -133.986 -168.529 -213.026 -236.158
c-40.6396 -34.7705 -83.4238 -67.041 -127.903 -96.7861c106.809 -102.196 218.621 -199.186 335.234 -290.042c48.3252 -37.6523 -74.6914 -79.9268 -107.258 -54.6084c-114.323 88.8838 -224.142 183.228 -329.03 283.006
c-5.35254 -2.9707 -10.7197 -5.91602 -16.1084 -8.81836c4.09961 -109.216 11.7744 -218.39 22.6865 -327.677c2.73828 -27.4238 -38.4893 -39.8564 -58.4189 -44.1875c-17.2051 -3.73926 -67.1689 -7.19043 -70.7158 19.0859
c-36.0098 266.693 -39.5283 539.438 -18.9434 807.532c0.873047 11.3535 17.8438 20.4102 26.626 25.2676c12.4512 6.8877 27.4238 10.2637 41.417 12.041c13.291 1.68457 26.6221 1.73438 39.7002 -1.53125c6.36426 -1.5918 24.4775 -9.25977 23.8184 -19.1465
c-8.54785 -128.238 -11.1553 -256.113 -8.67285 -383.881c53.9385 34.333 105.526 72.9355 156.463 117.365c64.4131 56.1826 129.57 120.631 175.819 193.973c24.0254 38.0967 43.0049 85.3076 33.5459 130.866c-7.37891 35.5332 -31.3018 65.7734 -60.335 86.7969
c-33.0469 23.9326 -75.9844 39.6104 -113.131 45.7471c-8.37695 1.38574 -24.7637 3.1377 -36.2568 3.88867c-4.16016 0.274414 -8.32031 0.427734 -12.4805 0.655273c-1.95215 0.110352 -3.40527 0.203125 -4.47754 0.28125
c-1.0791 -0.0498047 -2.53906 -0.0996094 -4.50488 -0.149414c-11.4961 -0.298828 -22.957 -0.69043 -34.4287 -1.58398c-5.20703 -0.40625 -10.3965 -0.955078 -15.5967 -1.42871c-1.50293 -0.135742 -2.68555 -0.235352 -3.65039 -0.310547
c-0.972656 -0.177734 -2.19043 -0.391602 -3.76855 -0.655273c-12.5439 -2.09766 -25.0557 -4.13086 -37.5098 -6.75195c-6.24316 -1.31738 -12.4326 -2.82422 -18.6582 -4.2168c-1.26758 -0.28125 -2.33594 -0.519531 -3.24414 -0.71582
c-0.395508 -0.121094 -0.844727 -0.259766 -1.41504 -0.426758c-21.4648 -6.36035 -42.5098 -13.3623 -63.4971 -21.1475c-4.87891 -1.9873 -6.73828 -2.7207 -5.70508 -2.24707c-2.97754 -1.28223 -5.95508 -2.56055 -8.91113 -3.88574
c-4.85449 -2.16895 -9.67285 -4.40527 -14.4697 -6.69141c-10.5527 -5.03223 -20.9736 -10.3389 -31.2412 -15.9307c-4.66895 -2.53906 -9.29883 -5.14258 -13.9033 -7.7998c-1.53809 -0.886719 -12.8564 -7.84277 -6.09277 -3.44434
c-8.03516 -5.23145 -9.77637 -4.57227 -12.5898 -13.7256z" />
    <glyph glyph-name="S" unicode="S" horiz-adv-x="799" 
d="M63.5957 453.85c-33.6562 23.9473 -64.6367 54.9951 -72.6182 97.2559c-8.6084 45.4727 12.0908 90.084 38.8877 125.549c55.0244 72.8145 140.503 126.465 223.261 162.13c93.2109 40.166 199.418 69.748 301.568 69.4736
c95.8428 -0.256836 201.754 -32.7344 232.154 -134.304c14.3564 -47.9619 10.8164 -101.199 3.97168 -150.134c-7.27637 -52.0479 -21.6289 -102.767 -35.9277 -153.226c-11.7988 -41.627 -139.396 -52.8027 -126.549 -7.3125
c16.3652 57.9561 33.207 116.642 38.5283 176.87c4.2627 48.2549 2.94824 107.731 -27.7158 147.977c-13.3311 17.4971 -30.0234 29.8691 -49.7822 39.293c-17.5898 8.3877 -37.459 11.9707 -59.7754 13.2461c-7.5293 0.291992 -8.83984 0.337891 -3.92871 0.12793
c-4.4375 -0.0673828 -8.86816 -0.213867 -13.2988 -0.441406c-6.66699 -0.334961 -13.291 -0.99707 -19.9434 -1.49902c-3.58301 -0.40625 -5.64844 -0.630859 -6.36426 -0.691406c-3.13086 -0.445312 -6.26172 -0.883789 -9.38477 -1.37207
c-4.10254 -0.637695 -8.19824 -1.31055 -12.29 -2.01172c-13.3623 -2.29395 -26.668 -4.91504 -39.8955 -7.88184c-6.41797 -1.44238 -12.8076 -2.99902 -19.1895 -4.59082c-1.27148 -0.331055 -2.65332 -0.698242 -3.39062 -0.918945
c-23.2676 -6.90918 -46.2959 -14.2207 -68.8896 -23.1318c-1.34668 -0.53418 -5.17871 -2.13672 -7.04883 -2.91309c-4.27344 -1.86621 -8.54395 -3.74316 -12.7783 -5.69824c-10.5029 -4.85449 -20.8779 -9.99023 -31.0889 -15.4287
c-21.9141 -11.6709 -30.2764 -16.6572 -51.5059 -31.8721c-17.1309 -12.2803 -33.791 -25.4824 -49.1377 -39.9453c-26.123 -24.6201 -56.6768 -61.4102 -60.3203 -101.491c-3.32617 -36.5801 18.4521 -67.832 45.9365 -89.1758
c34.8174 -27.0391 77.8936 -44.2441 117.469 -62.8027c48.5859 -22.7832 97.3926 -45.167 144.749 -70.4531c81.084 -43.2969 159.96 -96.5625 219.262 -167.717c57.6777 -69.2031 105.775 -167.083 74.8477 -258.253c-33.959 -100.095 -145.85 -151.729 -245.756 -147.868
c-90.3047 3.49023 -173.654 59.6514 -192.937 150.854c-9.20996 43.5605 -3.87891 90.9424 8.91016 133.225c6.70605 22.1738 15.3926 44.832 28.6807 63.9854c19.6377 28.3066 50.6328 40.8711 82.8389 49.0801c18.1279 4.61914 57.2686 5.92285 67.6113 -14.8584
c8.8252 -17.7295 -14.3848 -33.457 -31.0488 -40.2842c-5.45605 -8.67969 -0.626953 0.416016 -5.54883 -8.81934c-5.12109 -9.6084 -8.76074 -20.4746 -12.2256 -30.7705c-7.59277 -22.5762 -13.3662 -46.4805 -14.9082 -70.3135
c-2.9668 -45.8896 8.4834 -93.2178 40.6758 -127.112c13.2236 -13.9219 29.7314 -24.8447 47.6631 -31.8359c-1.65625 0.793945 11.6748 -3.20215 13.4736 -3.76465c1.33203 -0.419922 2.33594 -0.757812 3.08008 -1.03223
c0.754883 -0.0351562 1.69824 -0.0996094 2.91992 -0.206055c3.20898 -0.277344 18.3486 -0.740234 4.2666 -0.907227c1.04004 0.0107422 3.82129 0.00683594 6.27539 -0.0253906c1.56738 0.263672 3.1377 0.53418 4.69727 0.851562
c1.43164 0.669922 4.62598 1.8418 5.08496 1.86719c2.98828 1.4248 5.89062 2.9668 8.74707 4.61621c0.822266 0.793945 7.58203 5.48828 8.13086 5.91602c8.65039 6.7168 8.73926 6.65234 16.8594 16.2295c6.00098 7.08008 11.6885 14.6514 16.1016 22.8145
c43.7207 80.8877 -4.69434 177.065 -57.1475 240.802c-56.998 69.2637 -132.198 118.95 -210.854 160.448c-44.5537 23.5059 -90.3369 44.5791 -135.959 65.9053c-40.4619 18.915 -82.875 36.5264 -119.444 62.5469z" />
    <glyph glyph-name="T" unicode="T" horiz-adv-x="619" 
d="M6.32031 606.832c-8.81445 2.51074 -21.0391 8.14844 -23.0518 18.5371c-1.93359 9.95801 7.04492 20.7529 14.4424 25.8281c41.2666 28.3213 87.3311 46.1006 133.993 63.4482c41.8721 15.5635 84.0508 30.29 126.564 44.0156
c161.05 51.9902 326.156 90.1055 494.308 109.779c83.2988 9.74805 167.143 14.1924 251.001 12.5967c43.4326 -0.826172 87.4238 -4.35156 129.877 -13.957c30.3613 -6.87402 66.6416 -20.9316 81.3359 -50.5342c12.5117 -25.208 -17.0234 -40.0703 -37.4521 -47.585
c-15.04 -5.53418 -34.29 -8.00195 -50.2666 -6.4668c-8.36914 0.801758 -28.1494 4.07812 -33.2783 13.1133c-15.126 26.6396 -36.833 28.5771 -66.0693 32.335c-43.1436 5.54492 -78.4023 5.86914 -117.753 5.02539c-36.7686 -0.787109 -73.5156 -2.69629 -110.17 -5.66309
c-19.9795 -1.61719 -39.9346 -3.5332 -59.8574 -5.75586c-7.74609 -0.865234 -15.4854 -1.79492 -23.2246 -2.72754c-0.341797 -0.0390625 -0.569336 -0.0673828 -0.854492 -0.0996094c-0.441406 -0.0644531 -0.936523 -0.139648 -1.56348 -0.228516
c-4.41309 -0.637695 -8.83301 -1.18945 -13.2461 -1.80566c-73.9043 -10.3174 -147.231 -24.5986 -219.757 -42.1211c-2.91699 -67.8213 -4.50879 -135.692 -4.3916 -203.577c0.231445 -133.576 6.50684 -267.135 18.9824 -400.127
c6.18262 -65.9189 13.7646 -131.71 22.8604 -197.291c4.62598 -33.3643 9.6084 -66.6855 14.9258 -99.9463c2.1582 -13.5049 3.81445 -27.377 7.88867 -40.4863c2.20801 -7.1084 7.71387 -16.6064 10.6348 -18.5586c24.46 -16.3545 4.5625 -37.6162 -14.6943 -47.6094
c-25.1406 -13.0459 -64.1953 -20.3252 -90.2012 -5.79785c-29.1719 16.2939 -37.3027 45.9463 -42.6738 76.7246c-6.58887 37.752 -12.5225 75.6143 -17.9434 113.548c-37.1777 260.091 -50.291 523.925 -38.6377 786.438
c-22.7188 -6.92676 -45.7646 -14.2383 -69.0498 -21.9668c-33.9336 -11.2617 -67.6855 -23.0928 -101.228 -35.4834c-32.7012 -12.0771 -55.666 -19.0469 -80.9102 -36.0029c-25.0977 -16.8564 -60.7373 -26.0771 -90.54 -17.5977z" />
    <glyph glyph-name="U" unicode="U" horiz-adv-x="878" 
d="M367.169 -251.668c2.68555 1.71973 5.33301 3.59668 7.89355 5.47363c48.2363 35.3086 80.6816 95.9785 104.237 152.09c55.6621 132.587 84.1182 275.797 110.152 416.596c27.5547 149.037 49.29 298.968 71.46 448.87
c0.0351562 0.249023 0.113281 0.495117 0.166992 0.744141c-0.131836 3.90723 -0.259766 7.81055 -0.391602 11.7139c-0.929688 27.8076 36.9854 39.5459 58.4434 44.208c14.4414 3.1377 33.0605 3.74707 47.4775 -0.391602
c7.31152 -2.09375 22.8291 -8.55469 23.2705 -18.7012c3.61816 -83.3096 7.11914 -166.627 11.1436 -249.919c7.02637 -145.465 16.1504 -290.897 30.9736 -435.796c14.46 -141.344 33.3643 -282.674 76.4043 -418.533c8.2627 -26.0811 -43.9736 -41.666 -59.5547 -45.0498
c-21.2695 -4.61914 -63.4551 -6.67773 -72.0918 19.46c-25.208 76.2578 -41.6445 155.066 -53.8564 234.366c-14.4062 93.5566 -24.9766 187.708 -33.043 282.165c-12.7256 -58.96 -27.1855 -117.564 -45.0674 -175.182
c-22.3057 -71.8779 -48.9062 -143.425 -90.1621 -206.809c-42.4639 -65.2422 -105.178 -118.258 -183.316 -133.138c-79.2891 -15.0967 -154.995 9.70508 -208.122 70.5283c-45.8184 52.457 -69.791 122.978 -85.3516 189.755
c-17.8818 76.7324 -26.9707 155.388 -33.1787 233.833c-12.3975 156.705 -13.4619 314.101 -36.4053 469.897c-3.90332 26.501 38.6846 39.208 57.1328 43.2148c18.0566 3.9209 64.0107 6.91602 69.1602 -18.6699c32.8369 -163.137 30.5469 -330.579 45.6191 -495.746
c6.61328 -72.4619 16.0801 -145.141 33.5566 -215.864c15.2754 -61.8232 37.3818 -124.929 81.6221 -172.289c8.61914 -9.22754 17.7939 -17.8711 28.3818 -24.791c5.85156 -3.82812 11.9453 -7.05859 18.1318 -10.2891
c0.320312 -0.166992 3.48633 -1.49512 4.45117 -1.95117c2.6709 -0.886719 5.40234 -1.60645 8.08105 -2.44727c0.979492 -0.306641 1.68066 -0.541992 2.24707 -0.738281c0.274414 0.00390625 0.637695 -0.00683594 1.21777 -0.0566406
c0.313477 -0.0253906 0.847656 -0.0429688 1.47461 -0.0576172c0.188477 0.0498047 0.363281 0.0996094 0.544922 0.149414c1.23535 0.519531 2.73828 1.14648 3.48633 1.50977c1.70605 0.822266 2.93457 1.4209 3.81055 1.84473zM355.944 -256.159
c-1.48145 -0.256836 -2.78516 -0.658203 -3.39062 -1.41699c0.302734 0.380859 1.69922 0.893555 3.39062 1.41699z" />
    <glyph glyph-name="U" unicode="&#xdc;" horiz-adv-x="878" 
d="M367.169 -251.668c2.68555 1.71973 5.33301 3.59668 7.89355 5.47363c48.2363 35.3086 80.6816 95.9785 104.237 152.09c55.6621 132.587 84.1182 275.797 110.152 416.596c27.5547 149.037 49.29 298.968 71.46 448.87
c0.0351562 0.249023 0.113281 0.495117 0.166992 0.744141c-0.131836 3.90723 -0.259766 7.81055 -0.391602 11.7139c-0.929688 27.8076 36.9854 39.5459 58.4434 44.208c14.4414 3.1377 33.0605 3.74707 47.4775 -0.391602
c7.31152 -2.09375 22.8291 -8.55469 23.2705 -18.7012c3.61816 -83.3096 7.11914 -166.627 11.1436 -249.919c7.02637 -145.465 16.1504 -290.897 30.9736 -435.796c14.46 -141.344 33.3643 -282.674 76.4043 -418.533c8.2627 -26.0811 -43.9736 -41.666 -59.5547 -45.0498
c-21.2695 -4.61914 -63.4551 -6.67773 -72.0918 19.46c-25.208 76.2578 -41.6445 155.066 -53.8564 234.366c-14.4062 93.5566 -24.9766 187.708 -33.043 282.165c-12.7256 -58.96 -27.1855 -117.564 -45.0674 -175.182
c-22.3057 -71.8779 -48.9062 -143.425 -90.1621 -206.809c-42.4639 -65.2422 -105.178 -118.258 -183.316 -133.138c-79.2891 -15.0967 -154.995 9.70508 -208.122 70.5283c-45.8184 52.457 -69.791 122.978 -85.3516 189.755
c-17.8818 76.7324 -26.9707 155.388 -33.1787 233.833c-12.3975 156.705 -13.4619 314.101 -36.4053 469.897c-3.90332 26.501 38.6846 39.208 57.1328 43.2148c18.0566 3.9209 64.0107 6.91602 69.1602 -18.6699c32.8369 -163.137 30.5469 -330.579 45.6191 -495.746
c6.61328 -72.4619 16.0801 -145.141 33.5566 -215.864c15.2754 -61.8232 37.3818 -124.929 81.6221 -172.289c8.61914 -9.22754 17.7939 -17.8711 28.3818 -24.791c5.85156 -3.82812 11.9453 -7.05859 18.1318 -10.2891
c0.320312 -0.166992 3.48633 -1.49512 4.45117 -1.95117c2.6709 -0.886719 5.40234 -1.60645 8.08105 -2.44727c0.979492 -0.306641 1.68066 -0.541992 2.24707 -0.738281c0.274414 0.00390625 0.637695 -0.00683594 1.21777 -0.0566406
c0.313477 -0.0253906 0.847656 -0.0429688 1.47461 -0.0576172c0.188477 0.0498047 0.363281 0.0996094 0.544922 0.149414c1.23535 0.519531 2.73828 1.14648 3.48633 1.50977c1.70605 0.822266 2.93457 1.4209 3.81055 1.84473zM355.944 -256.159
c-1.48145 -0.256836 -2.78516 -0.658203 -3.39062 -1.41699c0.302734 0.380859 1.69922 0.893555 3.39062 1.41699z" />
    <glyph glyph-name="U" unicode="&#xdb;" horiz-adv-x="878" 
d="M367.169 -251.668c2.68555 1.71973 5.33301 3.59668 7.89355 5.47363c48.2363 35.3086 80.6816 95.9785 104.237 152.09c55.6621 132.587 84.1182 275.797 110.152 416.596c27.5547 149.037 49.29 298.968 71.46 448.87
c0.0351562 0.249023 0.113281 0.495117 0.166992 0.744141c-0.131836 3.90723 -0.259766 7.81055 -0.391602 11.7139c-0.929688 27.8076 36.9854 39.5459 58.4434 44.208c14.4414 3.1377 33.0605 3.74707 47.4775 -0.391602
c7.31152 -2.09375 22.8291 -8.55469 23.2705 -18.7012c3.61816 -83.3096 7.11914 -166.627 11.1436 -249.919c7.02637 -145.465 16.1504 -290.897 30.9736 -435.796c14.46 -141.344 33.3643 -282.674 76.4043 -418.533c8.2627 -26.0811 -43.9736 -41.666 -59.5547 -45.0498
c-21.2695 -4.61914 -63.4551 -6.67773 -72.0918 19.46c-25.208 76.2578 -41.6445 155.066 -53.8564 234.366c-14.4062 93.5566 -24.9766 187.708 -33.043 282.165c-12.7256 -58.96 -27.1855 -117.564 -45.0674 -175.182
c-22.3057 -71.8779 -48.9062 -143.425 -90.1621 -206.809c-42.4639 -65.2422 -105.178 -118.258 -183.316 -133.138c-79.2891 -15.0967 -154.995 9.70508 -208.122 70.5283c-45.8184 52.457 -69.791 122.978 -85.3516 189.755
c-17.8818 76.7324 -26.9707 155.388 -33.1787 233.833c-12.3975 156.705 -13.4619 314.101 -36.4053 469.897c-3.90332 26.501 38.6846 39.208 57.1328 43.2148c18.0566 3.9209 64.0107 6.91602 69.1602 -18.6699c32.8369 -163.137 30.5469 -330.579 45.6191 -495.746
c6.61328 -72.4619 16.0801 -145.141 33.5566 -215.864c15.2754 -61.8232 37.3818 -124.929 81.6221 -172.289c8.61914 -9.22754 17.7939 -17.8711 28.3818 -24.791c5.85156 -3.82812 11.9453 -7.05859 18.1318 -10.2891
c0.320312 -0.166992 3.48633 -1.49512 4.45117 -1.95117c2.6709 -0.886719 5.40234 -1.60645 8.08105 -2.44727c0.979492 -0.306641 1.68066 -0.541992 2.24707 -0.738281c0.274414 0.00390625 0.637695 -0.00683594 1.21777 -0.0566406
c0.313477 -0.0253906 0.847656 -0.0429688 1.47461 -0.0576172c0.188477 0.0498047 0.363281 0.0996094 0.544922 0.149414c1.23535 0.519531 2.73828 1.14648 3.48633 1.50977c1.70605 0.822266 2.93457 1.4209 3.81055 1.84473zM355.944 -256.159
c-1.48145 -0.256836 -2.78516 -0.658203 -3.39062 -1.41699c0.302734 0.380859 1.69922 0.893555 3.39062 1.41699z" />
    <glyph glyph-name="U" unicode="&#xda;" horiz-adv-x="878" 
d="M367.169 -251.668c2.68555 1.71973 5.33301 3.59668 7.89355 5.47363c48.2363 35.3086 80.6816 95.9785 104.237 152.09c55.6621 132.587 84.1182 275.797 110.152 416.596c27.5547 149.037 49.29 298.968 71.46 448.87
c0.0351562 0.249023 0.113281 0.495117 0.166992 0.744141c-0.131836 3.90723 -0.259766 7.81055 -0.391602 11.7139c-0.929688 27.8076 36.9854 39.5459 58.4434 44.208c14.4414 3.1377 33.0605 3.74707 47.4775 -0.391602
c7.31152 -2.09375 22.8291 -8.55469 23.2705 -18.7012c3.61816 -83.3096 7.11914 -166.627 11.1436 -249.919c7.02637 -145.465 16.1504 -290.897 30.9736 -435.796c14.46 -141.344 33.3643 -282.674 76.4043 -418.533c8.2627 -26.0811 -43.9736 -41.666 -59.5547 -45.0498
c-21.2695 -4.61914 -63.4551 -6.67773 -72.0918 19.46c-25.208 76.2578 -41.6445 155.066 -53.8564 234.366c-14.4062 93.5566 -24.9766 187.708 -33.043 282.165c-12.7256 -58.96 -27.1855 -117.564 -45.0674 -175.182
c-22.3057 -71.8779 -48.9062 -143.425 -90.1621 -206.809c-42.4639 -65.2422 -105.178 -118.258 -183.316 -133.138c-79.2891 -15.0967 -154.995 9.70508 -208.122 70.5283c-45.8184 52.457 -69.791 122.978 -85.3516 189.755
c-17.8818 76.7324 -26.9707 155.388 -33.1787 233.833c-12.3975 156.705 -13.4619 314.101 -36.4053 469.897c-3.90332 26.501 38.6846 39.208 57.1328 43.2148c18.0566 3.9209 64.0107 6.91602 69.1602 -18.6699c32.8369 -163.137 30.5469 -330.579 45.6191 -495.746
c6.61328 -72.4619 16.0801 -145.141 33.5566 -215.864c15.2754 -61.8232 37.3818 -124.929 81.6221 -172.289c8.61914 -9.22754 17.7939 -17.8711 28.3818 -24.791c5.85156 -3.82812 11.9453 -7.05859 18.1318 -10.2891
c0.320312 -0.166992 3.48633 -1.49512 4.45117 -1.95117c2.6709 -0.886719 5.40234 -1.60645 8.08105 -2.44727c0.979492 -0.306641 1.68066 -0.541992 2.24707 -0.738281c0.274414 0.00390625 0.637695 -0.00683594 1.21777 -0.0566406
c0.313477 -0.0253906 0.847656 -0.0429688 1.47461 -0.0576172c0.188477 0.0498047 0.363281 0.0996094 0.544922 0.149414c1.23535 0.519531 2.73828 1.14648 3.48633 1.50977c1.70605 0.822266 2.93457 1.4209 3.81055 1.84473zM355.944 -256.159
c-1.48145 -0.256836 -2.78516 -0.658203 -3.39062 -1.41699c0.302734 0.380859 1.69922 0.893555 3.39062 1.41699z" />
    <glyph glyph-name="V" unicode="V" horiz-adv-x="739" 
d="M31.9062 629.683c-10.6455 32.3311 -22.001 64.2041 -40.1826 93.1514c-26.4512 42.1074 96.0674 74.3926 119.405 40.4023c23.3564 -34.0156 38.0693 -72.5547 51.3252 -111.378c13.9434 -40.832 27.6406 -81.7568 41.3164 -122.682
c72.1523 -215.875 144.785 -431.797 228.237 -643.541c5.7373 31.4268 11.6992 62.8066 17.8174 94.1123c35.5645 181.941 76.0049 364.581 132.361 541.337c27.0674 84.8984 59.1104 168.408 99.6113 247.864c17.166 33.6807 34.8633 68.6191 59.8828 97.2822
c33.3887 38.2471 75.5918 60.7275 124.644 72.3379c18.623 4.40918 58.2832 6.23633 68.9209 -15.1436c10.5381 -21.1768 -23.7412 -39.543 -39.6045 -43.8135c-3.12695 -0.765625 -6.20801 -1.67383 -9.25293 -2.70703
c-1.06836 -0.791016 -4.19922 -2.47559 -4.52734 -2.44336c-2.70312 -1.95215 -5.34961 -3.96777 -8.03516 -5.97266c-1.13574 -0.847656 -1.97949 -1.45996 -2.69141 -1.97656c-0.25293 -0.295898 -0.655273 -0.726562 -1.33887 -1.39941
c-13.3203 -13.1133 -24.3184 -28.7051 -34.166 -44.5176c-22.1846 -35.6221 -40.5791 -76.0557 -57.7559 -115.061c-69.833 -158.557 -112.265 -328.157 -151.697 -496.344c-41.8086 -178.298 -73.0674 -358.109 -103.863 -538.533
c-0.791016 -4.6084 -3.81445 -8.76855 -7.71777 -12.4014c-3.2373 -3.98145 -7.18652 -7.43262 -10.0469 -9.66211c-12.9316 -10.0723 -29.208 -15.1826 -45.0068 -18.6162c-23.4629 -5.09961 -61.2002 -5.98633 -72.5723 19.5889
c-34.3682 77.2949 -66.6426 155.479 -97.3174 234.31c-54.5869 140.275 -104.159 282.496 -152.029 425.187c-23.9229 71.3076 -47.4932 142.733 -70.874 214.22c-11.5996 35.4688 -23.167 70.9521 -34.8418 106.399z" />
    <glyph glyph-name="W" unicode="W" horiz-adv-x="1162" 
d="M8.47168 663.253c12.5723 9.79395 28.3984 14.7666 43.7588 18.1006c22.0166 4.7832 60.541 6.14062 70.5635 -19.0459c27.3057 -68.6191 46.0537 -140.251 64.8408 -211.562c46.6982 -177.244 87.9473 -356.104 139.567 -531.924
c28.2998 142.171 60.8945 283.326 107.24 421.141c14.4844 43.0723 28.3525 89.4961 56.7373 125.845c38.0156 48.6816 135.486 71.9844 165.389 4.59082c19.46 -43.8564 25.3545 -93.8457 34.2188 -140.633c9.0459 -47.749 17.875 -95.54 27.3311 -143.21
c18.3594 -92.5596 39.002 -184.916 68.1885 -274.74c14.4307 -44.4082 30.2148 -89.2969 50.7715 -131.294c5.61621 -11.4678 12.0166 -22.7188 19.4316 -33.207c7.01953 20.5928 12.4688 41.8936 17.5791 63.002c11.5283 47.6064 19.7764 95.9463 26.3076 144.472
c12.9248 96.0205 19.9121 192.771 30.1338 289.099c21.1055 198.848 49.7861 397.671 103.781 590.546c12.041 43.0225 144.051 54.9004 130.98 7.56836c-44.1904 -160.035 -71.9131 -323.877 -92.0176 -488.534c-17.501 -143.339 -25.1406 -288.177 -47.5352 -430.867
c-5.68457 -36.2412 -12.5791 -72.3086 -21.3369 -107.938c-7.38672 -30.0557 -14.5703 -61.6143 -29.0195 -89.2119c-17.7363 -33.8799 -43.7812 -58.9424 -80.9844 -70.9053c-45.498 -14.6338 -95.1348 -12.1729 -132.783 18.9229
c-49.1523 40.5977 -71.4512 111.432 -92.2217 169.473c-23.9434 66.9131 -42.5127 135.66 -58.1514 204.952c-15.5459 68.8896 -28.3604 138.356 -41.0352 207.819c-4.57324 25.0762 -9.14941 50.1523 -13.8115 75.2148
c-3.43359 -10.4707 -6.82031 -20.959 -10.125 -31.4688c-20.1719 -64.2031 -37.7871 -129.193 -53.6602 -194.586c-32.1777 -132.551 -58.4258 -266.814 -83.4482 -400.883c-1.01465 -5.44531 -3.93848 -10.125 -8.08398 -14.1533
c-0.570312 -22.3232 -48.0664 -36.5303 -61.6533 -39.4824c-22.416 -4.86816 -63.5479 -6.54883 -73.3486 19.7988c-25.8418 69.4521 -48.7354 139.962 -69.6523 211.045c-36.9326 125.521 -68.2021 252.615 -99.4395 379.643
c-30.9346 125.791 -57.8984 254.78 -103.044 376.423c-4.50195 9.20312 8.27344 21.1123 14.5312 25.9912zM891.627 -286.818c-0.416992 1.23926 -1.89453 2.02734 -4.08496 2.46875c2.13672 -1.23242 4.0459 -2.35449 4.08496 -2.46875zM834.241 -295.294
c-2.01953 -1.19336 -3.00293 -2.28906 -2.49316 -3.16895c0.0322266 -0.0498047 1.04688 1.25684 2.49316 3.16895zM615.061 462.57c1.78418 2.82422 1.34668 2.58887 -1.26758 -0.644531c0.419922 0.213867 0.84375 0.430664 1.26758 0.644531zM526.993 446.062
c-2.74609 7.81055 -11.834 2.42285 0.196289 -0.472656c-0.0605469 0.15625 -0.142578 0.323242 -0.196289 0.472656z" />
    <glyph glyph-name="X" unicode="X" horiz-adv-x="686" 
d="M-51.9492 -341.973c-16.1123 -1.25 -63.4775 3.53906 -53.748 30.7812c32.8408 92.0176 73.043 181.336 118.338 267.869c54.7041 104.515 116.603 205.073 184.014 301.82c-72.2764 127.433 -138.634 258.766 -201.062 391.113
c-9.88281 20.9482 36.958 38.1182 49.2275 41.3516c13.5518 3.57227 27.2959 5.15332 41.2998 4.18848c7.74219 -0.538086 28.3096 -4.20605 32.8682 -12.9531c43.5742 -83.6201 84.7129 -168.479 128.84 -251.825c10.3672 -19.5879 20.8809 -39.1152 31.5156 -58.582
c7.49316 9.81543 15.0293 19.5986 22.6299 29.3281c53.6533 68.7119 109.315 136.323 168.436 200.423c61.7988 67.0059 129.35 129.207 209.433 173.7c22.6221 12.5684 58.0195 17.9316 82.54 7.82031c20.3682 -8.39844 22.1631 -29.1084 2.94531 -41.3525
c-79.2607 -50.4834 -144.824 -114.333 -206.47 -184.747c-79.3994 -90.6895 -154.688 -185.122 -224.137 -283.476c127.283 -218.646 276.556 -423.972 472.302 -587.508c22.8574 -19.0967 -26.7861 -44.2764 -38.1367 -48.4502
c-26.6221 -9.79785 -62.208 -11.9951 -85.0654 6.7627c-67.4043 55.3096 -129.727 116.538 -187.43 181.877c-90.3398 102.289 -169.091 214.123 -240.071 330.555c-92.3457 -145.023 -171.3 -298.26 -231.578 -460.382
c-10.2432 -27.5479 -51.5352 -36.3623 -76.6895 -38.3145z" />
    <glyph glyph-name="Y" unicode="Y" horiz-adv-x="758" 
d="M59.2275 188.53c-16.1016 44.3115 -25.1182 90.8584 -32.2949 137.339c-16.3262 105.736 -22.0635 212.869 -17.3271 319.738c1.23535 27.8682 34.8984 38.8379 57.9736 43.8525c14.3242 3.1123 32.7939 3.71777 47.0967 -0.388672
c6.57129 -1.88379 23.3174 -8.67188 23.082 -18.5518c-0.772461 -32.4482 -0.750977 -64.9004 0.217773 -97.3418c1.90527 -63.8467 7.07324 -127.462 15.8955 -190.731c7.9209 -56.8301 17.665 -114.177 37.4844 -168.229
c9.3877 -25.6143 21.2549 -50.2773 37.0498 -72.6006c2.1123 -2.98438 4.32715 -5.99707 6.64258 -8.95703c0.242188 0.356445 0.501953 0.698242 0.740234 1.05469c6.61035 9.78027 12.5156 19.9053 17.9502 30.376c13.7441 26.4863 25.668 53.9668 37.082 81.5215
c47.2109 113.964 80.9521 232.8 116.741 350.667c17.0732 56.2217 31.5293 115.973 59.166 168.148c7.4502 14.0674 14.9082 28.6621 26.4434 39.7881c16.418 15.834 38.04 24.0361 60.1777 28.249c41.2881 7.85645 78.1816 -3.41895 96.8086 -41.6973
c26.0312 -53.4863 37.0723 -112.24 47.0303 -170.449c10.8877 -63.6396 18.8154 -127.774 23.8301 -192.141c9.91113 -127.151 7.68848 -255.129 -5.10449 -381.992c-11.5605 -114.687 -31.4482 -230.156 -90.0098 -331.128
c-31.9111 -55.0176 -73.9111 -100.031 -134.157 -123.633c-59.4307 -23.2852 -148.812 -26.4795 -191.945 29.5244c-33.3818 43.3398 -32.1494 102.468 -20.418 153.223c12.7715 55.249 39.7852 107.297 67.4932 156.378c56.9053 100.79 128.634 189.816 213.928 267.973
c8.74707 8.01367 21.3799 13.6797 35.0381 17.0771c0.975586 61.2783 -0.719727 122.606 -5.00781 183.771c-4.84375 69.0283 -13.0742 137.825 -24.6807 206.045c-3.46191 20.3506 -7.08398 40.7295 -11.5107 60.916c-2.48926 -8.1377 -4.96484 -16.2793 -7.43652 -24.4102
c-16.4678 -54.1484 -32.1348 -108.532 -48.5283 -162.702c-29.0508 -96.0098 -60.3066 -191.878 -102.685 -282.966c-20.1611 -43.3359 -44.251 -91.3662 -82.6865 -121.496c-52.2295 -40.9395 -132.907 -46.1924 -184.441 -2.54688
c-34.0479 28.8369 -54.708 75.2354 -69.6377 116.32zM437.308 -355.715c-1.74121 -1.31445 -2.4668 -2.29004 1.24023 0.302734c-0.505859 -0.12793 -0.922852 -0.227539 -1.24023 -0.302734zM439.549 -354.575
c-0.0751953 -0.0458984 -0.137695 -0.0888672 -0.205078 -0.12793c0.0888672 0.0175781 0.18457 0.0351562 0.277344 0.0498047c0.0351562 0.0253906 0.078125 0.0576172 0.117188 0.0859375c-0.0644531 -0.00390625 -0.125 -0.0078125 -0.189453 -0.0078125z
M441.456 -353.308c0.110352 0.078125 0.188477 0.134766 0.298828 0.220703c-0.078125 -0.0605469 -0.18457 -0.138672 -0.298828 -0.220703c-0.00390625 0 0 0 0 0zM440.954 -353.678c-0.0253906 -0.00683594 -0.0537109 -0.0214844 -0.0751953 -0.0253906
c-0.441406 -0.298828 -0.936523 -0.623047 -1.31738 -0.865234c0.0751953 0.00683594 0.125 0.0107422 0.200195 0.0146484c0.352539 0.25293 0.783203 0.573242 1.19238 0.875977zM439.177 -354.735c0.216797 0.164062 0.606445 0.448242 1.20801 0.868164
c-0.566406 -0.220703 -1.21484 -0.580078 -1.85254 -0.993164c0.192383 0.0390625 0.40625 0.0820312 0.644531 0.125zM438.205 -355.078c-0.0927734 -0.0644531 -0.188477 -0.121094 -0.274414 -0.185547c0.166992 0.0605469 0.391602 0.135742 0.594727 0.207031
c-0.117188 -0.00683594 -0.234375 -0.0175781 -0.320312 -0.0214844zM444.402 -354.412c2.52539 -0.847656 5.56738 -1.82324 0.492188 0.0175781c-0.164062 -0.00683594 -0.328125 -0.0136719 -0.492188 -0.0175781zM460.454 -336.943
c80.6279 86.1768 105.227 215.812 119.579 328.718c4.59766 36.1777 8.15918 72.4658 10.7734 108.817c-65.8691 -74.3174 -121.215 -159.607 -160.085 -250.055c-22.1592 -51.5596 -40.8643 -112.144 -20.375 -167.311c4.17383 -11.2402 11.2754 -22.2344 20.4893 -30.0879
c2.53906 -2.16211 6.73828 -4.67969 10.4492 -6.36816c0.0644531 0.0458984 0.114258 0.078125 0.181641 0.124023c3.1416 2.19434 6.17578 4.51953 9.14648 6.94531c5.13965 4.19141 5.93066 5.03906 9.84082 9.2168z" />
    <glyph glyph-name="Y" unicode="&#x178;" horiz-adv-x="758" 
d="M59.2275 188.53c-16.1016 44.3115 -25.1182 90.8584 -32.2949 137.339c-16.3262 105.736 -22.0635 212.869 -17.3271 319.738c1.23535 27.8682 34.8984 38.8379 57.9736 43.8525c14.3242 3.1123 32.7939 3.71777 47.0967 -0.388672
c6.57129 -1.88379 23.3174 -8.67188 23.082 -18.5518c-0.772461 -32.4482 -0.750977 -64.9004 0.217773 -97.3418c1.90527 -63.8467 7.07324 -127.462 15.8955 -190.731c7.9209 -56.8301 17.665 -114.177 37.4844 -168.229
c9.3877 -25.6143 21.2549 -50.2773 37.0498 -72.6006c2.1123 -2.98438 4.32715 -5.99707 6.64258 -8.95703c0.242188 0.356445 0.501953 0.698242 0.740234 1.05469c6.61035 9.78027 12.5156 19.9053 17.9502 30.376c13.7441 26.4863 25.668 53.9668 37.082 81.5215
c47.2109 113.964 80.9521 232.8 116.741 350.667c17.0732 56.2217 31.5293 115.973 59.166 168.148c7.4502 14.0674 14.9082 28.6621 26.4434 39.7881c16.418 15.834 38.04 24.0361 60.1777 28.249c41.2881 7.85645 78.1816 -3.41895 96.8086 -41.6973
c26.0312 -53.4863 37.0723 -112.24 47.0303 -170.449c10.8877 -63.6396 18.8154 -127.774 23.8301 -192.141c9.91113 -127.151 7.68848 -255.129 -5.10449 -381.992c-11.5605 -114.687 -31.4482 -230.156 -90.0098 -331.128
c-31.9111 -55.0176 -73.9111 -100.031 -134.157 -123.633c-59.4307 -23.2852 -148.812 -26.4795 -191.945 29.5244c-33.3818 43.3398 -32.1494 102.468 -20.418 153.223c12.7715 55.249 39.7852 107.297 67.4932 156.378c56.9053 100.79 128.634 189.816 213.928 267.973
c8.74707 8.01367 21.3799 13.6797 35.0381 17.0771c0.975586 61.2783 -0.719727 122.606 -5.00781 183.771c-4.84375 69.0283 -13.0742 137.825 -24.6807 206.045c-3.46191 20.3506 -7.08398 40.7295 -11.5107 60.916c-2.48926 -8.1377 -4.96484 -16.2793 -7.43652 -24.4102
c-16.4678 -54.1484 -32.1348 -108.532 -48.5283 -162.702c-29.0508 -96.0098 -60.3066 -191.878 -102.685 -282.966c-20.1611 -43.3359 -44.251 -91.3662 -82.6865 -121.496c-52.2295 -40.9395 -132.907 -46.1924 -184.441 -2.54688
c-34.0479 28.8369 -54.708 75.2354 -69.6377 116.32zM437.308 -355.715c-1.74121 -1.31445 -2.4668 -2.29004 1.24023 0.302734c-0.505859 -0.12793 -0.922852 -0.227539 -1.24023 -0.302734zM439.549 -354.575
c-0.0751953 -0.0458984 -0.137695 -0.0888672 -0.205078 -0.12793c0.0888672 0.0175781 0.18457 0.0351562 0.277344 0.0498047c0.0351562 0.0253906 0.078125 0.0576172 0.117188 0.0859375c-0.0644531 -0.00390625 -0.125 -0.0078125 -0.189453 -0.0078125z
M441.456 -353.308c0.110352 0.078125 0.188477 0.134766 0.298828 0.220703c-0.078125 -0.0605469 -0.18457 -0.138672 -0.298828 -0.220703c-0.00390625 0 0 0 0 0zM440.954 -353.678c-0.0253906 -0.00683594 -0.0537109 -0.0214844 -0.0751953 -0.0253906
c-0.441406 -0.298828 -0.936523 -0.623047 -1.31738 -0.865234c0.0751953 0.00683594 0.125 0.0107422 0.200195 0.0146484c0.352539 0.25293 0.783203 0.573242 1.19238 0.875977zM439.177 -354.735c0.216797 0.164062 0.606445 0.448242 1.20801 0.868164
c-0.566406 -0.220703 -1.21484 -0.580078 -1.85254 -0.993164c0.192383 0.0390625 0.40625 0.0820312 0.644531 0.125zM438.205 -355.078c-0.0927734 -0.0644531 -0.188477 -0.121094 -0.274414 -0.185547c0.166992 0.0605469 0.391602 0.135742 0.594727 0.207031
c-0.117188 -0.00683594 -0.234375 -0.0175781 -0.320312 -0.0214844zM444.402 -354.412c2.52539 -0.847656 5.56738 -1.82324 0.492188 0.0175781c-0.164062 -0.00683594 -0.328125 -0.0136719 -0.492188 -0.0175781zM460.454 -336.943
c80.6279 86.1768 105.227 215.812 119.579 328.718c4.59766 36.1777 8.15918 72.4658 10.7734 108.817c-65.8691 -74.3174 -121.215 -159.607 -160.085 -250.055c-22.1592 -51.5596 -40.8643 -112.144 -20.375 -167.311c4.17383 -11.2402 11.2754 -22.2344 20.4893 -30.0879
c2.53906 -2.16211 6.73828 -4.67969 10.4492 -6.36816c0.0644531 0.0458984 0.114258 0.078125 0.181641 0.124023c3.1416 2.19434 6.17578 4.51953 9.14648 6.94531c5.13965 4.19141 5.93066 5.03906 9.84082 9.2168z" />
    <glyph glyph-name="Y" unicode="&#xdd;" horiz-adv-x="758" 
d="M59.2275 188.53c-16.1016 44.3115 -25.1182 90.8584 -32.2949 137.339c-16.3262 105.736 -22.0635 212.869 -17.3271 319.738c1.23535 27.8682 34.8984 38.8379 57.9736 43.8525c14.3242 3.1123 32.7939 3.71777 47.0967 -0.388672
c6.57129 -1.88379 23.3174 -8.67188 23.082 -18.5518c-0.772461 -32.4482 -0.750977 -64.9004 0.217773 -97.3418c1.90527 -63.8467 7.07324 -127.462 15.8955 -190.731c7.9209 -56.8301 17.665 -114.177 37.4844 -168.229
c9.3877 -25.6143 21.2549 -50.2773 37.0498 -72.6006c2.1123 -2.98438 4.32715 -5.99707 6.64258 -8.95703c0.242188 0.356445 0.501953 0.698242 0.740234 1.05469c6.61035 9.78027 12.5156 19.9053 17.9502 30.376c13.7441 26.4863 25.668 53.9668 37.082 81.5215
c47.2109 113.964 80.9521 232.8 116.741 350.667c17.0732 56.2217 31.5293 115.973 59.166 168.148c7.4502 14.0674 14.9082 28.6621 26.4434 39.7881c16.418 15.834 38.04 24.0361 60.1777 28.249c41.2881 7.85645 78.1816 -3.41895 96.8086 -41.6973
c26.0312 -53.4863 37.0723 -112.24 47.0303 -170.449c10.8877 -63.6396 18.8154 -127.774 23.8301 -192.141c9.91113 -127.151 7.68848 -255.129 -5.10449 -381.992c-11.5605 -114.687 -31.4482 -230.156 -90.0098 -331.128
c-31.9111 -55.0176 -73.9111 -100.031 -134.157 -123.633c-59.4307 -23.2852 -148.812 -26.4795 -191.945 29.5244c-33.3818 43.3398 -32.1494 102.468 -20.418 153.223c12.7715 55.249 39.7852 107.297 67.4932 156.378c56.9053 100.79 128.634 189.816 213.928 267.973
c8.74707 8.01367 21.3799 13.6797 35.0381 17.0771c0.975586 61.2783 -0.719727 122.606 -5.00781 183.771c-4.84375 69.0283 -13.0742 137.825 -24.6807 206.045c-3.46191 20.3506 -7.08398 40.7295 -11.5107 60.916c-2.48926 -8.1377 -4.96484 -16.2793 -7.43652 -24.4102
c-16.4678 -54.1484 -32.1348 -108.532 -48.5283 -162.702c-29.0508 -96.0098 -60.3066 -191.878 -102.685 -282.966c-20.1611 -43.3359 -44.251 -91.3662 -82.6865 -121.496c-52.2295 -40.9395 -132.907 -46.1924 -184.441 -2.54688
c-34.0479 28.8369 -54.708 75.2354 -69.6377 116.32zM437.308 -355.715c-1.74121 -1.31445 -2.4668 -2.29004 1.24023 0.302734c-0.505859 -0.12793 -0.922852 -0.227539 -1.24023 -0.302734zM439.549 -354.575
c-0.0751953 -0.0458984 -0.137695 -0.0888672 -0.205078 -0.12793c0.0888672 0.0175781 0.18457 0.0351562 0.277344 0.0498047c0.0351562 0.0253906 0.078125 0.0576172 0.117188 0.0859375c-0.0644531 -0.00390625 -0.125 -0.0078125 -0.189453 -0.0078125z
M441.456 -353.308c0.110352 0.078125 0.188477 0.134766 0.298828 0.220703c-0.078125 -0.0605469 -0.18457 -0.138672 -0.298828 -0.220703c-0.00390625 0 0 0 0 0zM440.954 -353.678c-0.0253906 -0.00683594 -0.0537109 -0.0214844 -0.0751953 -0.0253906
c-0.441406 -0.298828 -0.936523 -0.623047 -1.31738 -0.865234c0.0751953 0.00683594 0.125 0.0107422 0.200195 0.0146484c0.352539 0.25293 0.783203 0.573242 1.19238 0.875977zM439.177 -354.735c0.216797 0.164062 0.606445 0.448242 1.20801 0.868164
c-0.566406 -0.220703 -1.21484 -0.580078 -1.85254 -0.993164c0.192383 0.0390625 0.40625 0.0820312 0.644531 0.125zM438.205 -355.078c-0.0927734 -0.0644531 -0.188477 -0.121094 -0.274414 -0.185547c0.166992 0.0605469 0.391602 0.135742 0.594727 0.207031
c-0.117188 -0.00683594 -0.234375 -0.0175781 -0.320312 -0.0214844zM444.402 -354.412c2.52539 -0.847656 5.56738 -1.82324 0.492188 0.0175781c-0.164062 -0.00683594 -0.328125 -0.0136719 -0.492188 -0.0175781zM460.454 -336.943
c80.6279 86.1768 105.227 215.812 119.579 328.718c4.59766 36.1777 8.15918 72.4658 10.7734 108.817c-65.8691 -74.3174 -121.215 -159.607 -160.085 -250.055c-22.1592 -51.5596 -40.8643 -112.144 -20.375 -167.311c4.17383 -11.2402 11.2754 -22.2344 20.4893 -30.0879
c2.53906 -2.16211 6.73828 -4.67969 10.4492 -6.36816c0.0644531 0.0458984 0.114258 0.078125 0.181641 0.124023c3.1416 2.19434 6.17578 4.51953 9.14648 6.94531c5.13965 4.19141 5.93066 5.03906 9.84082 9.2168z" />
    <glyph glyph-name="Z" unicode="Z" horiz-adv-x="608" 
d="M-0.679688 557.969c-24.9873 14.6416 -3.37695 38.4629 14.5977 47.2666c87.958 43.1904 179.69 76.1123 274.525 100.49c94.6035 24.3174 195.016 41.8857 292.899 32.7148c36.5801 -3.42578 95.0273 -7.1123 115.763 -43.2012
c18.9648 -33.0039 -0.644531 -70.1855 -17.6152 -99.3896c-39.2012 -67.4541 -94.0732 -126.803 -143.094 -187.202c-98.5352 -121.407 -198.549 -243.775 -275.822 -380.269c-19.335 -34.1514 -36.9463 -69.4346 -51.0459 -106.086
c-12.6074 -32.7656 -24.9336 -68.8721 -27.2383 -104.177c-1.60254 -24.5918 2.22949 -56.46 23.5059 -71.4434c1.04688 -0.737305 4.77246 -2.82422 5.8623 -3.58984c1.43555 -0.423828 3.50879 -1.04688 5.21094 -1.58496
c2.80957 -0.320312 9.30957 -1.41699 8.99609 -1.38184c0.142578 -0.0175781 0.306641 -0.0283203 0.470703 -0.0390625c-0.341797 -0.0253906 -0.648438 -0.0507812 -1.0293 -0.0791016c0.391602 0.0322266 0.797852 0.0429688 1.19336 0.0644531
c1.28906 -0.0673828 2.97363 0.0253906 4.02441 0.128906c4.52344 0.0390625 9.20996 -0.0927734 13.5439 0.711914c1.65234 0.43457 3.37598 0.84082 4.57617 1.02637c5.27832 0.8125 10.5488 1.6748 15.8096 2.59375c18.8936 3.30469 37.666 7.31445 56.293 11.8838
c2.625 0.644531 5.24609 1.31738 7.86719 1.9834c1.77051 0.495117 6.97363 1.90234 8.72559 2.39746c9.23535 2.59961 18.4385 5.30957 27.6133 8.12695c36.8291 11.3008 73.1416 24.2002 109.259 37.5732c74.4736 27.5762 148.264 57.0869 224.426 79.8125
c22.373 6.67773 67.9668 15.8018 85.917 -6.83105c17.8213 -22.4727 -21.707 -43.9023 -38.5137 -48.9346c-174.438 -52.2295 -339.23 -139.211 -522.547 -158.475c-71.083 -7.47168 -161.355 9.53125 -172.467 93.7852c-9.47363 71.8564 24.8379 150.294 56.3389 212.819
c70.6172 140.165 167.902 265.692 266.139 387.292c50.3662 62.3467 102.424 123.533 150.945 187.341c19.0078 24.998 46.2598 56.9336 49.8965 89.5527c3.46191 31.0811 -34.8164 27.1025 -58.0156 28.7334c-19.7266 1.38574 -31.3545 1.16895 -55.124 -0.483398
c-10.2109 -0.708984 -20.3936 -1.68457 -30.5615 -2.83887c2.97754 0.337891 10.7383 1.55957 -2.84863 -0.399414c-4.50879 -0.651367 -9.01074 -1.31348 -13.5049 -2.01465c-21.96 -3.43652 -43.8135 -7.59668 -65.5459 -12.2725
c-8.56543 -1.84082 -17.1133 -3.77441 -25.6396 -5.79395c-4.2627 -1.01172 -8.52246 -2.04102 -12.7744 -3.09473c0.918945 0.227539 -7.86719 -2.03418 -11.3721 -2.91699c-3.36914 -0.925781 -8.95703 -2.4541 -9.76172 -2.67871
c-5.27441 -1.48145 -10.5352 -2.99902 -15.792 -4.54785c-9.45605 -2.78906 -18.8828 -5.68457 -28.2744 -8.68652c-17.7393 -5.67383 -35.3506 -11.7461 -52.8232 -18.1924c-39.2256 -14.4736 -64.0381 -25.0439 -103.399 -43.9375
c-24.6885 -11.8486 -64.082 -20.7021 -89.5889 -5.75781z" />
    <glyph glyph-name="bracketleft" unicode="[" horiz-adv-x="321" 
d="M266.464 -122.906c18.3486 -23.1387 -22.3701 -42.3115 -38.2725 -48.6328c-42.6699 -16.9561 -106.328 -25.5996 -142.861 9.11426c-20.7275 19.6953 -25.0586 50.1562 -28.0684 77.1631c-7.40039 66.3721 -7.53613 133.278 -7.13379 199.978
c0.398438 65.9297 0.857422 131.856 1.64844 197.783c0.791016 66.2539 0.644531 132.739 4.03906 198.919c1.63477 31.8818 0.637695 64.1094 28.5986 84.876c34.6279 25.7178 87.1348 28.877 128.509 23.1719c18.7939 -2.59277 48.7031 -13.9785 30.5752 -37.5518
c-12.0127 -15.6211 -34.9092 -24.4639 -56.709 -27.2812c-0.893555 -12.3193 -0.932617 -24.7236 -1.03906 -37.0605c-0.285156 -32.709 -0.555664 -65.4141 -0.890625 -98.123c-0.683594 -67.0977 -1.07227 -134.203 -1.5 -201.301
c-0.427734 -66.835 -1.79883 -133.787 1.0791 -200.583c1.375 -31.918 3.25586 -64.1709 8.09961 -95.7715c1.60645 -10.4814 3.37305 -22.1133 8.60156 -31.4443c0.15625 -0.28125 0.370117 -0.640625 0.623047 -1.04688c22.9004 4.13477 51.9551 3.86719 64.7012 -12.209z
M146.987 555.567c1.27539 -0.334961 2.5498 -0.40918 3.8252 -0.273438c-1.27539 0.0957031 -2.54688 0.212891 -3.8252 0.273438zM206.791 -117.707c0.430664 -0.438477 0.694336 -0.555664 0.651367 -0.142578c-0.213867 0.0605469 -0.43457 0.0820312 -0.651367 0.142578
z" />
    <glyph glyph-name="backslash" unicode="\" horiz-adv-x="457" 
d="M406.181 -86.9531c7.69238 -26.5049 -43.6875 -41.7881 -59.8994 -45.3135c-20.6885 -4.49414 -64.7578 -6.90918 -72.5107 19.5742c-64.1025 218.967 -140.236 433.475 -222.642 646.151c-9.53809 24.6133 44.1123 40.8145 57.9238 43.8135
c22.3662 4.86133 59.5234 5.91211 70.1191 -18.9258c89.4355 -209.678 163.493 -426.454 227.009 -645.3z" />
    <glyph glyph-name="bracketright" unicode="]" horiz-adv-x="321" 
d="M266.379 493.546c3.11621 -132.832 4.79883 -265.84 4.39648 -398.711c-0.103516 -33.9512 -0.748047 -67.9131 -2.80664 -101.808c-1.85938 -30.6074 -2.94922 -62.625 -9.73047 -92.6309c-7.05859 -31.2305 -27.0566 -55.7227 -55.9932 -69.5586
c-45.2559 -21.6436 -94.1338 -20.3721 -139.785 -2.00195c-26.1943 10.5381 -5.09277 36.2842 8.86816 44.9209c14.6055 9.03223 35.2402 16.2402 55.1416 17.7861c1.36426 6.07617 2.30078 12.2656 3.13379 18.3662c4.33789 31.7578 6.19336 63.8467 7.2793 95.8604
c2.31152 68.0273 0.875977 136.194 0.426758 204.243c-0.452148 68.3301 -1.01465 136.657 -1.58105 204.987c-0.267578 32.1279 -0.128906 64.292 -0.961914 96.4131c-0.220703 8.54785 -0.5625 17.0918 -1.24609 25.6143
c-0.413086 5.12109 -2.79883 12.4609 -1.94727 17.5645c0.0429688 0.164062 0.0361328 0.291992 0.0644531 0.445312c-2.75293 -0.231445 -5.49902 -0.519531 -8.23828 -0.928711c-16.5361 -2.04395 -51.624 2.15527 -51.3174 24.9092
c0.302734 22.5908 38.5527 36.0781 56.2393 38.5c35.8926 4.91113 105.918 14.5166 127.227 -24.7803c7.55078 -13.9287 7.80762 -30.9521 8.85449 -46.4414c1.18555 -17.5547 1.56348 -35.1631 1.97656 -52.75zM129.923 559.628
c0.391602 -0.380859 0.811523 -0.68457 1.21777 -1.02246c-0.30957 0.416992 -0.69043 0.776367 -1.21777 1.02246z" />
    <glyph glyph-name="asciicircum" unicode="^" horiz-adv-x="409" 
d="M358.773 299.72c2.00879 -27.7295 -38.0537 -39.9268 -58.7178 -44.4209c-16.8066 -3.65039 -68.1777 -7.24414 -71.0771 19.1855c-3.60059 32.833 -5.71289 65.8301 -10.5176 98.5244c-0.512695 3.48633 -1.06445 6.97266 -1.63477 10.4561
c-16.3828 -29.7734 -29.5498 -61.0928 -41.7441 -92.7754c-10.083 -26.1982 -48.7783 -34.5928 -73 -36.4736c-16.5645 -1.28223 -58.8145 3.07031 -51.168 29.3008c14.1572 48.5645 36.9434 94.5469 63.6826 137.363c13.623 21.8145 27.9404 44.3369 47.4434 61.3926
c29.1611 25.5068 73.6191 38.1787 111.848 31.6182c29.9844 -5.14258 46.9404 -19.9404 58.5615 -47.4062c6.79199 -16.0547 10.6777 -33.2314 13.7979 -50.3301c7.0127 -38.4424 9.70898 -77.5186 12.5264 -116.435zM195.894 450.385
c-1.26465 2.24707 -1.11426 1.04004 0 0z" />
    <glyph glyph-name="underscore" unicode="_" horiz-adv-x="352" 
d="M247.89 -23.9756c15.9912 0.936523 60.7295 -2.74121 52.6807 -30.1641c-7.95605 -27.1211 -51.5703 -35.7471 -75.1611 -37.5527c-40.5186 -3.09863 -81.084 -5.92676 -121.652 -8.27734c-16.0234 -0.929688 -60.8584 2.74219 -52.7949 30.2295
c7.97754 27.1846 51.6807 35.8105 75.3213 37.6309c40.4971 3.11621 81.0586 5.76562 121.606 8.13379z" />
    <glyph glyph-name="grave" unicode="`" horiz-adv-x="248" 
d="M194.887 386.727c12.6504 -25.3965 -17.1865 -40.4023 -37.7539 -47.9668c-15.165 -5.57715 -34.5684 -8.06641 -50.6729 -6.52051c-7.79297 0.748047 -29.0195 4.13867 -33.5459 13.2168c-22.1201 44.3652 -23.0605 95.2334 -22.9004 143.972
c0.0927734 27.9365 36.1025 39.3262 58.3936 44.1699c14.4238 3.13379 33.0293 3.74316 47.4355 -0.391602c7.30469 -2.09375 22.8076 -8.54688 23.249 -18.6865c0.99707 -22.8506 1.33203 -45.7725 3.63672 -68.5449c1.91602 -18.9111 3.53613 -41.9326 12.1582 -59.248z
" />
    <glyph glyph-name="a" unicode="a" horiz-adv-x="431" 
d="M301.428 456.876c47.4678 -144.321 90.6963 -290.277 130.215 -436.975c7.25098 -26.9209 -43.5889 -42.0176 -60.3701 -45.6641c-20.7207 -4.49805 -65.4453 -6.99512 -73.0811 19.7266c-10.0967 35.333 -20.1582 70.6699 -30.2305 105.996
c-25.3047 0.117188 -50.6055 0.551758 -75.9102 0.181641c-11.8877 -0.174805 -23.7725 -0.527344 -35.6465 -1.17188c-10.5918 -31.751 -20.8984 -63.6123 -30.7422 -95.6514c-13.21 -42.9902 -145.618 -54.458 -131.629 -7.60352
c45.8535 153.567 102.581 304.264 169.526 449.882c12.3906 26.9492 48.96 35.7314 75.6709 37.8047c9.55859 0.741211 34.7021 -1.25 47.3066 -10.3174c6.92383 -3.41895 12.3799 -8.57227 14.8906 -16.208zM179.724 167.093
c22.8223 1.33887 45.7393 1.53906 68.6328 1.47852c-9.9082 34.6064 -19.8623 69.1992 -29.9131 103.767c-13.3594 -34.9131 -26.2871 -69.9902 -38.7197 -105.245z" />
    <glyph glyph-name="a" unicode="&#xe5;" horiz-adv-x="431" 
d="M301.428 456.876c47.4678 -144.321 90.6963 -290.277 130.215 -436.975c7.25098 -26.9209 -43.5889 -42.0176 -60.3701 -45.6641c-20.7207 -4.49805 -65.4453 -6.99512 -73.0811 19.7266c-10.0967 35.333 -20.1582 70.6699 -30.2305 105.996
c-25.3047 0.117188 -50.6055 0.551758 -75.9102 0.181641c-11.8877 -0.174805 -23.7725 -0.527344 -35.6465 -1.17188c-10.5918 -31.751 -20.8984 -63.6123 -30.7422 -95.6514c-13.21 -42.9902 -145.618 -54.458 -131.629 -7.60352
c45.8535 153.567 102.581 304.264 169.526 449.882c12.3906 26.9492 48.96 35.7314 75.6709 37.8047c9.55859 0.741211 34.7021 -1.25 47.3066 -10.3174c6.92383 -3.41895 12.3799 -8.57227 14.8906 -16.208zM179.724 167.093
c22.8223 1.33887 45.7393 1.53906 68.6328 1.47852c-9.9082 34.6064 -19.8623 69.1992 -29.9131 103.767c-13.3594 -34.9131 -26.2871 -69.9902 -38.7197 -105.245z" />
    <glyph glyph-name="a" unicode="&#xe4;" horiz-adv-x="431" 
d="M301.428 456.876c47.4678 -144.321 90.6963 -290.277 130.215 -436.975c7.25098 -26.9209 -43.5889 -42.0176 -60.3701 -45.6641c-20.7207 -4.49805 -65.4453 -6.99512 -73.0811 19.7266c-10.0967 35.333 -20.1582 70.6699 -30.2305 105.996
c-25.3047 0.117188 -50.6055 0.551758 -75.9102 0.181641c-11.8877 -0.174805 -23.7725 -0.527344 -35.6465 -1.17188c-10.5918 -31.751 -20.8984 -63.6123 -30.7422 -95.6514c-13.21 -42.9902 -145.618 -54.458 -131.629 -7.60352
c45.8535 153.567 102.581 304.264 169.526 449.882c12.3906 26.9492 48.96 35.7314 75.6709 37.8047c9.55859 0.741211 34.7021 -1.25 47.3066 -10.3174c6.92383 -3.41895 12.3799 -8.57227 14.8906 -16.208zM179.724 167.093
c22.8223 1.33887 45.7393 1.53906 68.6328 1.47852c-9.9082 34.6064 -19.8623 69.1992 -29.9131 103.767c-13.3594 -34.9131 -26.2871 -69.9902 -38.7197 -105.245z" />
    <glyph glyph-name="a" unicode="&#xe3;" horiz-adv-x="431" 
d="M301.428 456.876c47.4678 -144.321 90.6963 -290.277 130.215 -436.975c7.25098 -26.9209 -43.5889 -42.0176 -60.3701 -45.6641c-20.7207 -4.49805 -65.4453 -6.99512 -73.0811 19.7266c-10.0967 35.333 -20.1582 70.6699 -30.2305 105.996
c-25.3047 0.117188 -50.6055 0.551758 -75.9102 0.181641c-11.8877 -0.174805 -23.7725 -0.527344 -35.6465 -1.17188c-10.5918 -31.751 -20.8984 -63.6123 -30.7422 -95.6514c-13.21 -42.9902 -145.618 -54.458 -131.629 -7.60352
c45.8535 153.567 102.581 304.264 169.526 449.882c12.3906 26.9492 48.96 35.7314 75.6709 37.8047c9.55859 0.741211 34.7021 -1.25 47.3066 -10.3174c6.92383 -3.41895 12.3799 -8.57227 14.8906 -16.208zM179.724 167.093
c22.8223 1.33887 45.7393 1.53906 68.6328 1.47852c-9.9082 34.6064 -19.8623 69.1992 -29.9131 103.767c-13.3594 -34.9131 -26.2871 -69.9902 -38.7197 -105.245z" />
    <glyph glyph-name="a" unicode="&#xe2;" horiz-adv-x="431" 
d="M301.428 456.876c47.4678 -144.321 90.6963 -290.277 130.215 -436.975c7.25098 -26.9209 -43.5889 -42.0176 -60.3701 -45.6641c-20.7207 -4.49805 -65.4453 -6.99512 -73.0811 19.7266c-10.0967 35.333 -20.1582 70.6699 -30.2305 105.996
c-25.3047 0.117188 -50.6055 0.551758 -75.9102 0.181641c-11.8877 -0.174805 -23.7725 -0.527344 -35.6465 -1.17188c-10.5918 -31.751 -20.8984 -63.6123 -30.7422 -95.6514c-13.21 -42.9902 -145.618 -54.458 -131.629 -7.60352
c45.8535 153.567 102.581 304.264 169.526 449.882c12.3906 26.9492 48.96 35.7314 75.6709 37.8047c9.55859 0.741211 34.7021 -1.25 47.3066 -10.3174c6.92383 -3.41895 12.3799 -8.57227 14.8906 -16.208zM179.724 167.093
c22.8223 1.33887 45.7393 1.53906 68.6328 1.47852c-9.9082 34.6064 -19.8623 69.1992 -29.9131 103.767c-13.3594 -34.9131 -26.2871 -69.9902 -38.7197 -105.245z" />
    <glyph glyph-name="a" unicode="&#xe1;" horiz-adv-x="431" 
d="M301.428 456.876c47.4678 -144.321 90.6963 -290.277 130.215 -436.975c7.25098 -26.9209 -43.5889 -42.0176 -60.3701 -45.6641c-20.7207 -4.49805 -65.4453 -6.99512 -73.0811 19.7266c-10.0967 35.333 -20.1582 70.6699 -30.2305 105.996
c-25.3047 0.117188 -50.6055 0.551758 -75.9102 0.181641c-11.8877 -0.174805 -23.7725 -0.527344 -35.6465 -1.17188c-10.5918 -31.751 -20.8984 -63.6123 -30.7422 -95.6514c-13.21 -42.9902 -145.618 -54.458 -131.629 -7.60352
c45.8535 153.567 102.581 304.264 169.526 449.882c12.3906 26.9492 48.96 35.7314 75.6709 37.8047c9.55859 0.741211 34.7021 -1.25 47.3066 -10.3174c6.92383 -3.41895 12.3799 -8.57227 14.8906 -16.208zM179.724 167.093
c22.8223 1.33887 45.7393 1.53906 68.6328 1.47852c-9.9082 34.6064 -19.8623 69.1992 -29.9131 103.767c-13.3594 -34.9131 -26.2871 -69.9902 -38.7197 -105.245z" />
    <glyph glyph-name="b" unicode="b" horiz-adv-x="397" 
d="M372.698 416.706c9.40918 -44.2012 -39.9043 -84.7832 -71.0674 -107.366c-8.83203 -6.40039 -17.917 -12.3691 -27.1982 -18.0068c21.2588 -4.93652 42.4961 -12.7715 61.1973 -23.748c42.2031 -24.7705 63.4297 -66.4893 48.8457 -114.89
c-13.1416 -43.6143 -50.9893 -80.4541 -86.6611 -106.72c-43.6533 -32.1426 -93.8984 -53.0693 -146.708 -64.5088c-0.623047 -0.135742 -1.29297 -0.267578 -1.99121 -0.399414c-10.752 -5.63379 -22.2695 -9.51562 -27.8008 -10.9727
c-13.8545 -3.65039 -27.9082 -5.26758 -42.2217 -4.28125c-8.13477 0.55957 -28.7236 4.29199 -33.6025 13.2422c-17.8105 32.6836 -18.5801 70.125 -21.1084 106.552c-2.57129 37.0889 -3.44043 74.2959 -3.37988 111.471c0.125 76.8848 4.65918 153.717 9.67773 230.413
c1.89453 28.9902 35.7324 40.2197 60.1963 45.5371c10.0967 2.19434 22.1592 3.1416 33.5234 2.21875c15.4893 3.25195 31.4941 4.77246 47.2324 5.96191c26.7041 2.01953 53.9707 1.61328 80.6035 -1.11523c41.9609 -4.29883 109.618 -12.4551 120.463 -63.3877z
M215.177 411.315c-14.7441 2.81738 -30.3896 4.14941 -45.4404 4.47363c-0.961914 -0.0214844 -3.07031 -0.046875 -6.46484 -0.0722656c-0.544922 -0.0146484 -1.08984 -0.0537109 -1.63477 -0.0683594c-1.9375 -34.7168 -3.8252 -69.4414 -5.22461 -104.18
c10.3643 5.12109 20.5781 10.5234 30.5254 16.4072c-1.93066 -1.01855 11.7383 7.78223 13.2344 8.85449c6.24707 4.47363 12.376 9.16797 18.1816 14.207c7.1084 6.17188 17.166 14.8623 22.2979 24.877c11.5498 22.5332 -9.4375 32.4346 -25.4746 35.501zM255.725 150.769
c8.42969 34.71 -13.5176 58.4268 -43.8438 70.6777c-6.3291 2.55371 -13.7334 4.47656 -20.5859 6.10059c-0.975586 0.231445 -6.38574 1.28906 -7.94531 1.6416c-1.99414 0.166992 -9.92578 1.05762 -11.2119 1.16406c-4.0918 0.341797 -8.1875 0.516602 -12.2871 0.737305
c7.82129 -0.419922 1.50293 -0.28418 -5.5918 -0.0673828c-0.0175781 -1.52441 -0.0566406 -3.04199 -0.0712891 -4.56641c-0.363281 -38.3926 0.387695 -76.7891 2.51758 -115.125c1.04004 -18.7227 1.45312 -38.332 4.07031 -57.4033
c0.541016 0.209961 1.02539 0.402344 1.43457 0.558594c1.80176 0.865234 3.82812 1.82324 4.26953 2.04004c4.22363 2.06934 8.34766 4.29199 12.4932 6.51465c1.43848 0.772461 3.58203 2.01855 4.23047 2.37109c6.48145 4.14551 12.7314 8.71094 18.793 13.4365
c22.4229 17.4688 46.249 41.1201 53.7285 71.9199z" />
    <glyph glyph-name="c" unicode="c" horiz-adv-x="378" 
d="M202.263 395.558c-23.3984 -31.1025 -37.6953 -68.3125 -46.7559 -106.192c-12.1201 -50.666 -17.2773 -106.685 -7.40527 -158.134c4.54102 -23.6592 12.4473 -45.6621 27.6338 -64.5732c6.77051 -8.42969 14.0752 -15.6982 23.3809 -21.04
c1.69922 -0.972656 2.87793 -1.60645 3.82129 -2.08008c0.915039 0.858398 2.04004 2.03418 3.81348 4.03906c4.15625 4.70117 7.97754 9.68359 11.5283 14.8584c12.8174 18.666 20.998 40.0566 29.2783 60.998c10.3105 26.0771 48.3682 34.4434 72.7148 36.3311
c14.752 1.14648 60.877 -3.51562 50.9688 -29.1836c-13.3447 -34.5645 -27.7832 -71.7422 -53.7822 -98.9658c-39.5605 -41.4268 -97.3779 -60.5166 -154.009 -58.3193c-78.6904 3.05566 -134.599 59.6826 -148.756 135.261
c-7.09082 37.8652 -5.03906 77.1484 -1.10352 115.26c3.50098 33.916 10.3359 67.6504 22.0674 99.7139c29.8701 81.6436 91.9678 152.556 183.526 159.636c43.4531 3.3623 86.4717 -9.57617 108.364 -49.5215c19.1426 -34.9238 24.1963 -73.124 24.9336 -112.4
c0.527344 -28.0361 -36.8613 -39.707 -58.7891 -44.4688c-14.5234 -3.15918 -33.2529 -3.76855 -47.7588 0.391602c-7.25098 2.08301 -23.0605 8.63281 -23.4062 18.8154c-1.05762 31.252 -3.29102 64.8291 -16.7637 93.6094
c-1.01172 2.16211 -2.21582 4.11035 -3.50195 5.96582zM184.598 416.114c-0.640625 0.209961 -0.94043 0.146484 0 0zM196.574 38.3037c1.94824 0.224609 4.64453 0.40332 3.54395 0.638672c-1.17188 -0.185547 -2.30078 -0.37793 -3.41211 -0.574219
c-0.0429688 -0.0214844 -0.0888672 -0.0429688 -0.131836 -0.0644531zM196.229 38.2832c-0.291992 -0.0537109 -0.612305 -0.0986328 -0.893555 -0.152344c0.231445 0.0458984 0.530273 0.0888672 0.861328 0.12793
c0.0107422 0.00683594 0.0214844 0.0175781 0.0322266 0.0244141zM195.641 37.8496c-1.0752 -0.541016 -2.02344 -1.10059 -1.87695 -1.32812c0.0175781 -0.0253906 0.836914 0.5625 1.87695 1.32812z" />
    <glyph glyph-name="d" unicode="d" horiz-adv-x="413" 
d="M339.652 420.389c46.1494 -35.041 70.9492 -87.0645 67.2949 -145.209c-7.42578 -118.138 -109.508 -220.576 -202.814 -282.581c-22.4551 -14.9229 -50.8896 -23.1602 -78.167 -20.8027c-2.22559 -0.730469 -4.16699 -1.30762 -5.65527 -1.69922
c-13.8506 -3.65039 -27.9043 -5.26758 -42.2178 -4.28125c-8.13477 0.55957 -28.7275 4.29199 -33.6035 13.2422c-17.8105 32.6836 -18.5801 70.125 -21.1084 106.552c-2.57129 37.0889 -3.44043 74.2959 -3.37988 111.471c0.125 76.8848 4.65918 153.717 9.67773 230.413
c1.89453 28.9902 35.7324 40.2197 60.1963 45.5371c14.873 3.23047 34.0518 3.85742 48.9033 -0.405273c0.0566406 -0.0146484 0.131836 -0.0400391 0.192383 -0.0576172c7.63574 0.676758 15.0967 0.780273 21.9131 0.473633
c61.9736 -2.78125 128.185 -14.249 178.769 -52.6523zM274.824 247.403c6.61719 44.9746 -8.74023 93.0039 -44.2764 122.162c-21.4365 17.5977 -45.4805 27.0215 -70.6816 32.2422c-3.22656 -58.4121 -6.13672 -116.838 -6.68848 -175.356
c-0.363281 -38.3926 0.388672 -76.7891 2.51855 -115.125c0.854492 -15.3926 1.2998 -31.3867 2.87793 -47.1895c56.2744 48.5215 105.544 110.53 116.25 183.267z" />
    <glyph glyph-name="e" unicode="e" horiz-adv-x="349" 
d="M28.1299 99.5176c-22.0459 96.6445 -10.249 197.938 5.41797 295.306c-6.69922 3.27344 -11.6279 8.2666 -13.0703 15.6963c-3.17285 16.3184 12.6475 27.6582 29.5146 34.8809c5.32129 4.28125 11.5967 7.72852 16.3867 10.3779
c15.3643 8.49805 33.6885 12.0137 51.0469 13.3604c8.58301 0.666016 20.2363 0.259766 30.6143 -2.47559c43.7314 6.16113 87.9326 9.44434 131.938 9.75098c15.9199 0.114258 61.3076 -2.19043 53.041 -30.3691c-7.69629 -26.2305 -52.2256 -37.6094 -75.6709 -37.8057
c-29.7705 -0.249023 -59.4912 -1.62012 -89.123 -4.55078c-0.449219 -0.0429688 -0.898438 -0.0927734 -1.34766 -0.138672c-8.89648 -58.8174 -16.7246 -117.97 -16.0625 -177.254c33.6172 8.88184 67.8076 15.8799 101.916 21.2646
c17.4336 2.75293 65.9902 7.71094 71.2256 -19.2246c5.08594 -26.1729 -40.1768 -41.5977 -58.8389 -44.5078c-24.1113 -3.75781 -48.1299 -8.15625 -71.9316 -13.5518c-6.48926 -1.4707 -12.9502 -3.04883 -19.4219 -4.6084
c-1.60645 -0.40625 -3.21582 -0.8125 -4.8252 -1.21875c-0.298828 -0.0820312 -0.580078 -0.160156 -0.939453 -0.255859c-4.18164 -1.19336 -8.35547 -2.4082 -12.5332 -3.6123c0.274414 -2.05176 0.484375 -4.09961 0.787109 -6.14746
c5.95801 -40.4404 14.7402 -90.6465 46.0176 -119.976c4.2168 -3.95312 11.2119 -8.55469 14.9873 -10.5674c2.60742 0.637695 4.25293 1.0293 5.17871 1.23926c0.541016 0.149414 1.12891 0.313477 1.77734 0.491211c8.61133 2.37207 17.2305 4.7334 25.9102 6.8457
c14.6807 3.57227 29.5391 5.56348 44.583 6.9707c16.5752 1.54883 51.6699 -1.83789 51.3604 -24.9307c-0.306641 -22.6865 -38.585 -35.9961 -56.2891 -38.5322c-4.13086 -0.488281 -8.22656 -1.17871 -12.2871 -2.06934
c-0.570312 -0.131836 -1.04395 -0.242188 -1.53516 -0.356445c-0.637695 -0.203125 -2.64258 -0.773438 -6.0332 -1.70605c-4.00684 -1.19629 -8.02051 -2.375 -12.041 -3.53223c-19.5703 -5.54883 -38.207 -10.0332 -58.4258 -12.1953
c-31.1562 -3.33398 -63.1416 0.231445 -91.291 14.6729c-48.2539 24.7598 -68.6826 78.9512 -80.0361 128.729z" />
    <glyph glyph-name="e" unicode="&#xeb;" horiz-adv-x="349" 
d="M28.1299 99.5176c-22.0459 96.6445 -10.249 197.938 5.41797 295.306c-6.69922 3.27344 -11.6279 8.2666 -13.0703 15.6963c-3.17285 16.3184 12.6475 27.6582 29.5146 34.8809c5.32129 4.28125 11.5967 7.72852 16.3867 10.3779
c15.3643 8.49805 33.6885 12.0137 51.0469 13.3604c8.58301 0.666016 20.2363 0.259766 30.6143 -2.47559c43.7314 6.16113 87.9326 9.44434 131.938 9.75098c15.9199 0.114258 61.3076 -2.19043 53.041 -30.3691c-7.69629 -26.2305 -52.2256 -37.6094 -75.6709 -37.8057
c-29.7705 -0.249023 -59.4912 -1.62012 -89.123 -4.55078c-0.449219 -0.0429688 -0.898438 -0.0927734 -1.34766 -0.138672c-8.89648 -58.8174 -16.7246 -117.97 -16.0625 -177.254c33.6172 8.88184 67.8076 15.8799 101.916 21.2646
c17.4336 2.75293 65.9902 7.71094 71.2256 -19.2246c5.08594 -26.1729 -40.1768 -41.5977 -58.8389 -44.5078c-24.1113 -3.75781 -48.1299 -8.15625 -71.9316 -13.5518c-6.48926 -1.4707 -12.9502 -3.04883 -19.4219 -4.6084
c-1.60645 -0.40625 -3.21582 -0.8125 -4.8252 -1.21875c-0.298828 -0.0820312 -0.580078 -0.160156 -0.939453 -0.255859c-4.18164 -1.19336 -8.35547 -2.4082 -12.5332 -3.6123c0.274414 -2.05176 0.484375 -4.09961 0.787109 -6.14746
c5.95801 -40.4404 14.7402 -90.6465 46.0176 -119.976c4.2168 -3.95312 11.2119 -8.55469 14.9873 -10.5674c2.60742 0.637695 4.25293 1.0293 5.17871 1.23926c0.541016 0.149414 1.12891 0.313477 1.77734 0.491211c8.61133 2.37207 17.2305 4.7334 25.9102 6.8457
c14.6807 3.57227 29.5391 5.56348 44.583 6.9707c16.5752 1.54883 51.6699 -1.83789 51.3604 -24.9307c-0.306641 -22.6865 -38.585 -35.9961 -56.2891 -38.5322c-4.13086 -0.488281 -8.22656 -1.17871 -12.2871 -2.06934
c-0.570312 -0.131836 -1.04395 -0.242188 -1.53516 -0.356445c-0.637695 -0.203125 -2.64258 -0.773438 -6.0332 -1.70605c-4.00684 -1.19629 -8.02051 -2.375 -12.041 -3.53223c-19.5703 -5.54883 -38.207 -10.0332 -58.4258 -12.1953
c-31.1562 -3.33398 -63.1416 0.231445 -91.291 14.6729c-48.2539 24.7598 -68.6826 78.9512 -80.0361 128.729z" />
    <glyph glyph-name="e" unicode="&#xea;" horiz-adv-x="349" 
d="M28.1299 99.5176c-22.0459 96.6445 -10.249 197.938 5.41797 295.306c-6.69922 3.27344 -11.6279 8.2666 -13.0703 15.6963c-3.17285 16.3184 12.6475 27.6582 29.5146 34.8809c5.32129 4.28125 11.5967 7.72852 16.3867 10.3779
c15.3643 8.49805 33.6885 12.0137 51.0469 13.3604c8.58301 0.666016 20.2363 0.259766 30.6143 -2.47559c43.7314 6.16113 87.9326 9.44434 131.938 9.75098c15.9199 0.114258 61.3076 -2.19043 53.041 -30.3691c-7.69629 -26.2305 -52.2256 -37.6094 -75.6709 -37.8057
c-29.7705 -0.249023 -59.4912 -1.62012 -89.123 -4.55078c-0.449219 -0.0429688 -0.898438 -0.0927734 -1.34766 -0.138672c-8.89648 -58.8174 -16.7246 -117.97 -16.0625 -177.254c33.6172 8.88184 67.8076 15.8799 101.916 21.2646
c17.4336 2.75293 65.9902 7.71094 71.2256 -19.2246c5.08594 -26.1729 -40.1768 -41.5977 -58.8389 -44.5078c-24.1113 -3.75781 -48.1299 -8.15625 -71.9316 -13.5518c-6.48926 -1.4707 -12.9502 -3.04883 -19.4219 -4.6084
c-1.60645 -0.40625 -3.21582 -0.8125 -4.8252 -1.21875c-0.298828 -0.0820312 -0.580078 -0.160156 -0.939453 -0.255859c-4.18164 -1.19336 -8.35547 -2.4082 -12.5332 -3.6123c0.274414 -2.05176 0.484375 -4.09961 0.787109 -6.14746
c5.95801 -40.4404 14.7402 -90.6465 46.0176 -119.976c4.2168 -3.95312 11.2119 -8.55469 14.9873 -10.5674c2.60742 0.637695 4.25293 1.0293 5.17871 1.23926c0.541016 0.149414 1.12891 0.313477 1.77734 0.491211c8.61133 2.37207 17.2305 4.7334 25.9102 6.8457
c14.6807 3.57227 29.5391 5.56348 44.583 6.9707c16.5752 1.54883 51.6699 -1.83789 51.3604 -24.9307c-0.306641 -22.6865 -38.585 -35.9961 -56.2891 -38.5322c-4.13086 -0.488281 -8.22656 -1.17871 -12.2871 -2.06934
c-0.570312 -0.131836 -1.04395 -0.242188 -1.53516 -0.356445c-0.637695 -0.203125 -2.64258 -0.773438 -6.0332 -1.70605c-4.00684 -1.19629 -8.02051 -2.375 -12.041 -3.53223c-19.5703 -5.54883 -38.207 -10.0332 -58.4258 -12.1953
c-31.1562 -3.33398 -63.1416 0.231445 -91.291 14.6729c-48.2539 24.7598 -68.6826 78.9512 -80.0361 128.729z" />
    <glyph glyph-name="e" unicode="&#xe9;" horiz-adv-x="349" 
d="M28.1299 99.5176c-22.0459 96.6445 -10.249 197.938 5.41797 295.306c-6.69922 3.27344 -11.6279 8.2666 -13.0703 15.6963c-3.17285 16.3184 12.6475 27.6582 29.5146 34.8809c5.32129 4.28125 11.5967 7.72852 16.3867 10.3779
c15.3643 8.49805 33.6885 12.0137 51.0469 13.3604c8.58301 0.666016 20.2363 0.259766 30.6143 -2.47559c43.7314 6.16113 87.9326 9.44434 131.938 9.75098c15.9199 0.114258 61.3076 -2.19043 53.041 -30.3691c-7.69629 -26.2305 -52.2256 -37.6094 -75.6709 -37.8057
c-29.7705 -0.249023 -59.4912 -1.62012 -89.123 -4.55078c-0.449219 -0.0429688 -0.898438 -0.0927734 -1.34766 -0.138672c-8.89648 -58.8174 -16.7246 -117.97 -16.0625 -177.254c33.6172 8.88184 67.8076 15.8799 101.916 21.2646
c17.4336 2.75293 65.9902 7.71094 71.2256 -19.2246c5.08594 -26.1729 -40.1768 -41.5977 -58.8389 -44.5078c-24.1113 -3.75781 -48.1299 -8.15625 -71.9316 -13.5518c-6.48926 -1.4707 -12.9502 -3.04883 -19.4219 -4.6084
c-1.60645 -0.40625 -3.21582 -0.8125 -4.8252 -1.21875c-0.298828 -0.0820312 -0.580078 -0.160156 -0.939453 -0.255859c-4.18164 -1.19336 -8.35547 -2.4082 -12.5332 -3.6123c0.274414 -2.05176 0.484375 -4.09961 0.787109 -6.14746
c5.95801 -40.4404 14.7402 -90.6465 46.0176 -119.976c4.2168 -3.95312 11.2119 -8.55469 14.9873 -10.5674c2.60742 0.637695 4.25293 1.0293 5.17871 1.23926c0.541016 0.149414 1.12891 0.313477 1.77734 0.491211c8.61133 2.37207 17.2305 4.7334 25.9102 6.8457
c14.6807 3.57227 29.5391 5.56348 44.583 6.9707c16.5752 1.54883 51.6699 -1.83789 51.3604 -24.9307c-0.306641 -22.6865 -38.585 -35.9961 -56.2891 -38.5322c-4.13086 -0.488281 -8.22656 -1.17871 -12.2871 -2.06934
c-0.570312 -0.131836 -1.04395 -0.242188 -1.53516 -0.356445c-0.637695 -0.203125 -2.64258 -0.773438 -6.0332 -1.70605c-4.00684 -1.19629 -8.02051 -2.375 -12.041 -3.53223c-19.5703 -5.54883 -38.207 -10.0332 -58.4258 -12.1953
c-31.1562 -3.33398 -63.1416 0.231445 -91.291 14.6729c-48.2539 24.7598 -68.6826 78.9512 -80.0361 128.729z" />
    <glyph glyph-name="f" unicode="f" horiz-adv-x="333" 
d="M80.9707 464.252c71.1582 17.9502 146.984 24.0381 219.924 14.4717c19.4531 -2.55371 50.1533 -14.499 31.5264 -38.7207c-17.9316 -23.3242 -58.3262 -31.4092 -85.9883 -28.4746c-15.6172 1.65625 -31.2061 3.04883 -46.9014 3.6543
c-7.48242 0.288086 -17.7178 -0.0078125 -30.9805 -0.751953c-3.23047 -0.181641 -6.4541 -0.430664 -9.67676 -0.69043c-2.50684 -62.2617 -2.65625 -124.281 -1.27051 -186.269c22.2773 4.71582 44.8818 7.97461 67.4971 10.1182
c16.0342 1.52051 60.3779 -3.13477 52.4824 -30.0527c-8.00977 -27.3018 -51.3135 -35.1729 -74.876 -37.4062c-4.44824 -0.491211 -6.60254 -0.698242 -6.63086 -0.648438c-3.04102 -0.445312 -6.08203 -0.879883 -9.10938 -1.39941
c-7.67188 -1.31445 -15.2119 -3.17676 -22.8438 -4.65137c-0.519531 -0.12793 -0.958008 -0.231445 -1.35352 -0.327148c-1.06152 -0.306641 -2.11523 -0.641602 -3.17285 -0.955078c2.03027 -53.0801 4.96875 -106.196 8.33105 -159.476
c1.75195 -27.7363 -37.7764 -39.8135 -58.6143 -44.3398c-17.3447 -3.76758 -67.2842 -7.21191 -70.9561 19.1533c-20.126 144.439 -20.6777 293.288 -12.127 438.656c-0.84375 1.60938 -1.49902 3.35449 -1.87305 5.28516
c-5.11426 26.3018 38.9375 38.3643 56.6133 42.8232z" />
    <glyph glyph-name="g" unicode="g" horiz-adv-x="428" 
d="M224.729 386.611c-32.4346 -42.5342 -53.0518 -94.4209 -67.0771 -145.678c-14.9795 -54.7402 -26.5615 -117.43 -8.81445 -172.875c3.36523 -10.5137 8.00977 -19.6982 15.3496 -28.0322c1.26465 -1.43848 2.37207 -2.56348 3.48633 -3.59277
c5.68457 4.3418 10.3105 8.71484 14.7842 13.3984c35.5439 37.2207 56.7666 83.8545 78.1143 129.976c2.68164 5.79102 6.5 10.7129 11.0371 14.9619c0.0253906 1.09375 0.0605469 2.18359 0.0888672 3.27734c-12.1982 -2.12305 -24.3857 -4.29883 -36.5693 -6.58887
c-16.71 -3.1377 -63.7002 -7.09082 -68.6826 18.5371c-5.13965 26.4473 39.0508 38.3252 56.7373 42.9199c43.3682 11.2617 88.5527 17.1201 133.164 20.5498c16.0479 1.23242 60.6699 -2.94531 52.6855 -30.166c-1.46777 -5.00391 -4.14941 -9.37012 -7.68555 -13.1807
c1.75586 -77.8076 5.91602 -154.657 15.5352 -232.105c3.39746 -27.3311 -39.1377 -40.0811 -58.5654 -44.3018c-17.6475 -3.83203 -66.7959 -7.18359 -70.8984 19.1357c-2.3291 14.9551 -4.4375 30.0166 -6.30762 45.1494
c-12.7646 -11.1152 -26.7295 -21.0908 -42.1934 -29.5781c-44.1621 -24.2324 -102.897 -35.583 -151.868 -20.4434c-37.5918 11.6172 -60.9443 39.7529 -72.1025 76.6787c-11.5107 38.0967 -8.57617 79.4414 -3.3125 118.336
c5.40234 39.9316 15.3994 79.2148 29.6172 116.913c26.3047 69.7617 66.2969 139.685 131.247 179.854c70.001 43.293 204.226 55.2275 209.269 -55.0752c1.22852 -26.8428 -36.0527 -38.3174 -56.5381 -42.7695c-13.9678 -3.03418 -31.9814 -3.625 -45.9316 0.37793
c-7.26855 2.08691 -21.8887 8.22656 -22.5117 18.0957c-0.711914 11.2188 -3.12695 22.5977 -9.02832 32.2812c-5.70508 -5.15332 -16.1973 -17.0986 -23.0283 -26.0557zM157.599 29.5059c-0.0537109 -0.00390625 -0.0849609 -0.0117188 -0.134766 -0.0185547
c-0.0429688 -0.0175781 -0.0888672 -0.0351562 -0.131836 -0.0498047c0.103516 0.0253906 0.207031 0.046875 0.310547 0.0722656c-0.0146484 0 -0.0292969 -0.00390625 -0.0439453 -0.00390625zM174.798 31.6523c1.75586 -3.38672 2.96582 0.626953 -0.574219 0.0751953
c0.388672 -0.181641 0.673828 -0.267578 0.574219 -0.0751953zM156.786 29.4082c-3.93555 -0.477539 -2.38574 -0.505859 -0.231445 -0.121094c0.078125 0.0429688 0.15332 0.0820312 0.231445 0.121094z" />
    <glyph glyph-name="h" unicode="h" horiz-adv-x="431" 
d="M108.155 448.086c21.1377 1.6416 57.7021 -2.93164 54.2373 -31.0605c-8.05957 -65.4492 -11.9414 -131.223 -11.1289 -197.146c5.66602 0.879883 11.3398 1.72363 17.0205 2.50391c18.1426 2.48633 36.3418 4.72266 54.5908 6.2793
c12.5752 1.07227 25.1436 1.77344 37.7158 2.20801c-0.954102 79.1934 4.23828 158.476 15.3711 236.874c1.65625 11.6816 17.4512 20.2363 26.7217 25.3652c15.2002 8.41211 33.332 11.8877 50.5059 13.2197c20.7852 1.61328 57.9883 -2.92773 54.1309 -30.9961
c-11.2256 -81.668 -15.9805 -163.935 -13.665 -246.354c1.16797 -41.5342 3.94238 -83.0322 8.42676 -124.338c4.06738 -37.4775 4.99316 -81.4834 21.0518 -116.087c4.38086 -9.44141 -8.25195 -21.251 -14.6875 -26.2656
c-12.707 -9.90137 -28.7012 -14.9229 -44.2256 -18.2959c-23.7158 -5.14941 -59.2949 -5.59082 -71.3145 19.25c-17.5332 36.2383 -19.0215 83.1465 -23.4346 122.654c-2.90234 25.9805 -5.03613 52.0361 -6.5498 78.1309
c-3.79297 -0.0214844 -7.58594 -0.0566406 -11.3789 -0.131836c-9.08887 -0.181641 -18.1738 -0.516602 -27.248 -1.00781c-15.8916 -0.858398 -31.7188 -2.29395 -47.542 -3.97168c-1.42773 -0.166992 -2.5498 -0.298828 -3.5332 -0.413086
c-4.32715 -0.598633 -8.64746 -1.22559 -12.9639 -1.89551c-2.27246 -0.352539 -4.54102 -0.741211 -6.80957 -1.11914c0.99707 -17.7432 2.29688 -35.4727 3.9209 -53.1621c1.68457 -18.3447 3.66504 -36.6689 5.97266 -54.9424
c1.45996 -11.5352 0.5625 -31.2012 7.2793 -39.8945c17.4551 -22.5938 -21.4072 -41.5234 -37.2773 -47.3604c-25.3467 -9.32715 -61.6377 -12.3184 -83.1523 6.61426c-12.4043 10.916 -14.0322 29.5781 -16.4287 44.917c-3.02051 19.3135 -5.63867 38.6914 -7.75391 58.126
c-3.98535 36.5938 -6.48242 73.3193 -7.4834 110.12c-2.08301 76.6533 2.0625 153.517 12.2451 229.515c1.56348 11.6748 17.5469 20.3076 26.7783 25.418c15.2324 8.42676 33.3994 11.9102 50.6084 13.2461z" />
    <glyph glyph-name="i" unicode="i" horiz-adv-x="273" 
d="M238.188 487.707c19.1465 -0.477539 44.3535 -12.2988 33.8154 -34.084c-9.84375 -20.3428 -42.3105 -30.5039 -65.1436 -32.4658c-11.6035 -133.484 -7.39746 -267.445 10.9014 -400.188c17.3584 1.32129 52.165 -2.30469 51.8516 -25.6719
c-0.313477 -23.1562 -39.6357 -37.1777 -57.8135 -39.5742c-8.08496 -1.0752 -16.1729 -2.11523 -24.2686 -3.1123c5.88672 0.726562 4.79004 0.544922 -3.29785 -0.548828c-8.01367 -1.28613 -16.0303 -2.50781 -24.0146 -3.97559
c-7.98145 -1.46777 -15.9346 -3.08105 -23.8623 -4.81934c-1.38184 -0.298828 -2.75684 -0.633789 -4.13867 -0.943359c-23.5879 -11.0762 -56.2002 -16.333 -80.5391 -6.29297c-20.6035 8.49414 -22.6836 29.7207 -2.99609 42.0723
c11.5146 7.21875 23.9658 13.124 36.9834 18.0391c-21.0059 134.563 -24.624 271.63 -12.3125 407.24c-23.0459 -5.5918 -57.9951 -9.80469 -73.0068 9.125c-17.1416 21.6182 20.8809 42.1396 37.0068 47.0186c65.4209 19.7871 132.451 29.8877 200.835 28.1816z" />
    <glyph glyph-name="i" unicode="&#xef;" horiz-adv-x="273" 
d="M238.188 487.707c19.1465 -0.477539 44.3535 -12.2988 33.8154 -34.084c-9.84375 -20.3428 -42.3105 -30.5039 -65.1436 -32.4658c-11.6035 -133.484 -7.39746 -267.445 10.9014 -400.188c17.3584 1.32129 52.165 -2.30469 51.8516 -25.6719
c-0.313477 -23.1562 -39.6357 -37.1777 -57.8135 -39.5742c-8.08496 -1.0752 -16.1729 -2.11523 -24.2686 -3.1123c5.88672 0.726562 4.79004 0.544922 -3.29785 -0.548828c-8.01367 -1.28613 -16.0303 -2.50781 -24.0146 -3.97559
c-7.98145 -1.46777 -15.9346 -3.08105 -23.8623 -4.81934c-1.38184 -0.298828 -2.75684 -0.633789 -4.13867 -0.943359c-23.5879 -11.0762 -56.2002 -16.333 -80.5391 -6.29297c-20.6035 8.49414 -22.6836 29.7207 -2.99609 42.0723
c11.5146 7.21875 23.9658 13.124 36.9834 18.0391c-21.0059 134.563 -24.624 271.63 -12.3125 407.24c-23.0459 -5.5918 -57.9951 -9.80469 -73.0068 9.125c-17.1416 21.6182 20.8809 42.1396 37.0068 47.0186c65.4209 19.7871 132.451 29.8877 200.835 28.1816z" />
    <glyph glyph-name="i" unicode="&#xee;" horiz-adv-x="273" 
d="M238.188 487.707c19.1465 -0.477539 44.3535 -12.2988 33.8154 -34.084c-9.84375 -20.3428 -42.3105 -30.5039 -65.1436 -32.4658c-11.6035 -133.484 -7.39746 -267.445 10.9014 -400.188c17.3584 1.32129 52.165 -2.30469 51.8516 -25.6719
c-0.313477 -23.1562 -39.6357 -37.1777 -57.8135 -39.5742c-8.08496 -1.0752 -16.1729 -2.11523 -24.2686 -3.1123c5.88672 0.726562 4.79004 0.544922 -3.29785 -0.548828c-8.01367 -1.28613 -16.0303 -2.50781 -24.0146 -3.97559
c-7.98145 -1.46777 -15.9346 -3.08105 -23.8623 -4.81934c-1.38184 -0.298828 -2.75684 -0.633789 -4.13867 -0.943359c-23.5879 -11.0762 -56.2002 -16.333 -80.5391 -6.29297c-20.6035 8.49414 -22.6836 29.7207 -2.99609 42.0723
c11.5146 7.21875 23.9658 13.124 36.9834 18.0391c-21.0059 134.563 -24.624 271.63 -12.3125 407.24c-23.0459 -5.5918 -57.9951 -9.80469 -73.0068 9.125c-17.1416 21.6182 20.8809 42.1396 37.0068 47.0186c65.4209 19.7871 132.451 29.8877 200.835 28.1816z" />
    <glyph glyph-name="i" unicode="&#xed;" horiz-adv-x="273" 
d="M238.188 487.707c19.1465 -0.477539 44.3535 -12.2988 33.8154 -34.084c-9.84375 -20.3428 -42.3105 -30.5039 -65.1436 -32.4658c-11.6035 -133.484 -7.39746 -267.445 10.9014 -400.188c17.3584 1.32129 52.165 -2.30469 51.8516 -25.6719
c-0.313477 -23.1562 -39.6357 -37.1777 -57.8135 -39.5742c-8.08496 -1.0752 -16.1729 -2.11523 -24.2686 -3.1123c5.88672 0.726562 4.79004 0.544922 -3.29785 -0.548828c-8.01367 -1.28613 -16.0303 -2.50781 -24.0146 -3.97559
c-7.98145 -1.46777 -15.9346 -3.08105 -23.8623 -4.81934c-1.38184 -0.298828 -2.75684 -0.633789 -4.13867 -0.943359c-23.5879 -11.0762 -56.2002 -16.333 -80.5391 -6.29297c-20.6035 8.49414 -22.6836 29.7207 -2.99609 42.0723
c11.5146 7.21875 23.9658 13.124 36.9834 18.0391c-21.0059 134.563 -24.624 271.63 -12.3125 407.24c-23.0459 -5.5918 -57.9951 -9.80469 -73.0068 9.125c-17.1416 21.6182 20.8809 42.1396 37.0068 47.0186c65.4209 19.7871 132.451 29.8877 200.835 28.1816z" />
    <glyph glyph-name="j" unicode="j" horiz-adv-x="368" 
d="M231.062 477.08c26.6973 0.263672 62.6904 3.37891 81.751 -19.9131c11.8916 -14.5342 16.4072 -35.2725 20.1504 -53.2256c15.25 -73.1064 22.7861 -148.086 17.3154 -222.691c-4.96777 -67.7178 -17.1016 -142.929 -77.458 -184.271
c-64.6123 -44.2549 -180.609 -59.8359 -226.709 18.335c-36.3809 61.6992 -39.7217 134.678 -33.7451 204.233c0.96875 11.2861 17.6006 20.1758 26.3584 25.0195c12.3262 6.82031 27.1494 10.1611 41.0068 11.9209c13.1562 1.67383 26.3584 1.71973 39.3047 -1.51367
c6.39648 -1.59863 24.1436 -9.1416 23.584 -18.957c-3.32324 -58.2051 -3.58691 -126.917 27.127 -178.868c3.93164 -6.64941 8.68262 -13.8438 14.2744 -19.4385c3.42285 4.60156 7.15527 10.2217 9.35938 14.624c23.8018 47.5244 26.501 108.515 26.0811 160.587
c-0.484375 59.7969 -6.94141 121.328 -20.3467 179.665c-0.908203 3.94922 -4.49121 11.0859 -5.50977 16.1182c-9.82617 -0.0351562 -19.6953 0.256836 -29.4463 0.217773c-33.5811 -0.138672 -67.166 -0.242188 -100.74 0.402344
c-18.8828 0.367188 -43.6387 12.1768 -33.2891 33.5596c10.8516 22.4297 48.5039 31.6074 70.8916 32.3408c43.3213 1.41699 86.7002 1.42383 130.04 1.85449zM191.694 414.127c-3.29395 1.9873 -9.55176 2.37598 0 0zM196.599 29.3779
c1.54199 -2.57129 2.54297 -0.0605469 -0.441406 0.359375c0.196289 -0.110352 0.363281 -0.227539 0.441406 -0.359375z" />
    <glyph glyph-name="k" unicode="k" horiz-adv-x="399" 
d="M24.7061 25.7773c-1.48828 20.6562 -2.18359 41.3994 -2.75 62.1055c-1.11133 40.5791 -1.27148 81.166 -0.40918 121.753c1.79492 84.2715 7.48926 168.486 17.2656 252.209c1.35645 11.6104 17.6787 20.3896 26.7998 25.4365
c15.2471 8.4375 33.4287 11.9238 50.6523 13.2598c21.4863 1.66699 57.3291 -2.94824 54.2881 -31.084c-4.87891 -45.1309 -8.75391 -90.3506 -11.5566 -135.635c29.7949 37.1074 55.7549 74.8203 79.4814 116.226c12.4727 21.7676 53.5117 27.9463 75.5684 27.6826
c14.3027 -0.170898 51.1533 -5.67383 43.1865 -29.0801c-13.9609 -41.0029 -43.3359 -78.3018 -69.958 -111.904c-13.4834 -17.0205 -27.3486 -33.7344 -40.7471 -50.8262c-7.29004 -9.29883 -14.4668 -18.6904 -21.3584 -28.2891
c-3.75 -5.22461 -8.60742 -9.45605 -8.16895 -15.6426c0.655273 -9.27441 9.55859 -20.8604 13.7861 -28.7773c5.5127 -10.3213 11.1758 -20.5645 17.1025 -30.6543c11.8379 -20.165 24.6631 -39.7422 38.9375 -58.2764c12.96 -16.8213 27.124 -34.5605 44.166 -47.4883
c6.51074 -4.93945 14.2432 -9.5625 21.7471 -12.7393c2.96289 -1.41699 3.25879 -1.52344 0.886719 -0.319336c0.620117 -0.174805 1.24316 -0.349609 1.86328 -0.524414c0.328125 0.270508 9.12891 -0.972656 10.1758 -0.998047
c19.7451 -0.430664 45.6758 -12.7031 34.835 -35.1123c-11.0264 -22.7832 -51.0898 -34.1016 -74.1787 -33.8379c-33.001 0.374023 -64.5596 4.76855 -93.2441 22.3262c-20.3359 12.4512 -38.3037 29.126 -53.8564 47.0898
c-8.79688 10.1611 -16.9707 20.7676 -24.6602 31.708c0.288086 -14.3779 0.616211 -28.7588 1.21094 -43.1289c0.683594 -16.5791 -0.164062 -36.1846 5.55566 -51.8584c7.90625 -21.6719 -34.874 -37.1289 -48.4678 -40.7119
c-23.5488 -6.20801 -53.4121 -8.49414 -73.0215 8.62598c-14.1426 12.3477 -13.8857 41.1816 -15.1318 58.4658z" />
    <glyph glyph-name="l" unicode="l" horiz-adv-x="292" 
d="M12.6475 -17.666c-16.5498 20.8701 15.0518 38.4336 32.9727 46.2969c-12.4902 145.547 -17.8359 292.821 -18.3027 438.866c-0.0888672 27.833 36.1455 39.2441 58.2197 44.041c14.3848 3.12305 32.9326 3.73242 47.2959 -0.391602
c7.53613 -2.16211 22.4873 -8.45898 23.1816 -18.6309c9.80469 -143.56 12.0273 -287.472 22.7402 -431.01c27.7402 2.62109 55.6729 2.81348 83.2461 0.484375c20.001 -1.68848 49.835 -15.1084 31.6035 -38.8174c-18.6797 -24.293 -57.8242 -29.8486 -86.2061 -28.5449
c-0.177734 0.0107422 -14.3379 0.220703 -12.7852 0.341797c-5.74121 -0.0927734 -11.4863 -0.289062 -17.2168 -0.626953c-5.3418 -0.317383 -10.6592 -0.887695 -15.9902 -1.30469c-1.80176 -0.288086 -3.60742 -0.576172 -5.40918 -0.861328
c-6.43945 -1.24316 -12.8643 -2.48242 -19.293 -3.77539c-1.5459 -0.359375 -3.09473 -0.71875 -4.64062 -1.07812c-0.0957031 -0.0283203 -0.160156 -0.0458984 -0.259766 -0.0742188c-11.4355 -3.76465 -22.8252 -7.30469 -34.0547 -11.6816
c-21.0801 -8.21973 -68.2021 -14.5449 -85.1016 6.7666z" />
    <glyph glyph-name="m" unicode="m" horiz-adv-x="507" 
d="M457.576 485.204c6.35742 -1.82715 23.6572 -8.78027 23.1797 -18.6309c-7.53613 -156.046 -2.67871 -311.034 7.375 -466.831c1.82715 -28.3027 -38.5918 -40.6436 -59.8252 -45.2559c-14.7803 -3.21289 -33.8379 -3.83301 -48.6006 0.401367
c-7.81055 2.24023 -23.0361 8.67578 -23.8193 19.1465c-8.3877 112.275 -11.9561 224.458 -9.48828 336.733c-11.7773 -17.5508 -22.9893 -35.4609 -33.5273 -53.7246c-3.89258 -6.74902 -10.5098 -11.9951 -18.4375 -16.0303
c-10.0645 -7.2334 -21.7676 -12.7607 -26.7354 -14.5879c-26.1699 -9.62695 -62.4082 -12.2627 -84.749 6.74121c-11.1436 9.47754 -21.1582 19.8809 -30.4932 30.8398c-1.70215 -83.6123 4.64062 -167.083 17.0918 -250.721
c4.02051 -27.0176 -39.4902 -39.9951 -58.2695 -44.0762c-18.627 -4.0459 -65.0078 -7.02344 -70.5391 19.0391c-28.7656 135.55 -28.8193 278.255 -8.12695 414.962c1.00391 6.61719 6.41406 12.2012 12.6143 16.7383c4.69043 15.0361 31.2764 27.7822 41.6758 31.6074
c23.6982 8.71875 63.9639 13.6904 83.3672 -6.63086c29.2686 -30.6465 51.4746 -66.9268 75.8525 -101.388c26.875 39.4717 56.417 76.9453 89.6494 112.218c17.5576 18.6338 44.0693 27.3447 69.7266 28.7441c1.62402 0.391602 3.22656 0.758789 4.7832 1.09668
c14.3848 3.12305 32.9326 3.73242 47.2959 -0.391602z" />
    <glyph glyph-name="n" unicode="n" horiz-adv-x="448" 
d="M105.053 445.45c13.3555 1.04004 31.0957 -0.28125 42.5312 -7.69629c18.3418 0.0390625 37.6201 -4.66211 43.7031 -21.1406c25.5859 -69.3135 43.9707 -140.999 74.6816 -208.407c8.82227 -19.3604 18.5596 -38.2822 29.0557 -56.7773
c-0.915039 20.1689 -1.85156 40.334 -2.74512 60.5059c-3.04492 68.6045 -5.85449 137.216 -8.59668 205.835c-1.13965 28.5596 38.1865 40.7002 60.1006 45.458c14.8438 3.22656 33.9941 3.85352 48.8203 -0.402344c7.47949 -2.14746 23.5137 -8.80762 23.9307 -19.2324
c3.07324 -76.9453 6.04395 -153.898 8.71484 -230.858c1.16797 -33.5879 2.82422 -67.2051 3.03125 -100.818c0.174805 -28.3174 4.17773 -65.2998 -12.8564 -89.7422c-27.3027 -39.1758 -95.0703 -49.3193 -137.178 -33.3711
c-28.4561 10.7773 -49.2051 36.584 -66.2783 60.7881c-21.9248 31.085 -41.3174 64.3809 -58.252 98.7881c1.46777 -45.3906 4.00684 -90.7676 7.51855 -136.105c2.13379 -27.5762 -37.9971 -39.7676 -58.4434 -44.209c-16.75 -3.63965 -67.8359 -7.21191 -70.749 19.0928
c-15.4355 139.382 -15.2607 280.206 -3.86719 419.887c0.925781 11.3682 17.793 20.375 26.6006 25.2471c15.1328 8.37305 33.1787 11.8311 50.2773 13.1592zM295.371 31.4541c-2.20117 -2.7959 -1.33594 -3.73633 0 0z" />
    </font>
</defs>
</svg>
